Filmbol Forum Film İndir 1080P v Velvet Buzzshaw (2019) Türkçe Dublaj BLURAY m1080P İndir
Mega linklerinin şikayet edilmemesi için global erişime kapatıp sadece yorum yapanlara açıyoruz. Bu linkleri gizleme işlemini mecburen yapıyoruz ve yorum yapmanızın siteye değil size faydası vardır. Teşekürler yazmayı çok görüp, Random/Spam mesajlar atarak Mega linklerini açmaya çalışan kullanıcılara önce süresiz ban, devam ederse IP ban atacağız.
Filmbol'da moderatör olmak ister misiniz? Bizimle iletişime geçmek için tıklayın!
Velvet Buzzshaw (2019) Türkçe Dublaj BLURAY m1080P İndir
BroserBros
Velvet Buzzshaw (2019) Türkçe Dublaj BLURAY m1080P İndir
5
761
  • Derecelendirme: 0/5 - 0 oy
  • 1
  • 2
  • 3
  • 4
  • 5
Konuyu Okuyanlar:3 Ziyaretçi
Şuan Online!
Filmin Yayınlanma Tarihi: 2019 
WWW
Şuan Online!
BroserBros Kurucu Admin
*******
Admin





Ses Kodek: AC3


Audio Coding 3 (AC3)






Velvet Buzzshaw



Teknik Detaylar

Kod :
General
Complete name                            : Velvet.Buzzsaw.2019.m1080p.NF.WEBRip.x264.TR.Filmbol.mkv
Format                                   : Matroska
Format version                           : Version 4 / Version 2
File size                                : 1.90 GiB
Duration                                 : 1h 52mn
Overall bit rate                         : 2 415 Kbps
Movie name                               : Velvet Buzzsaw (2019) - Filmbol.org
Encoded date                             : UTC 2019-08-21 16:02:49
Writing application                      : mkvmerge v35.0.0 ('All The Love In The World') 64-bit
Writing library                          : libebml v1.3.9 + libmatroska v1.5.2

Video
ID                                       : 1
Format                                   : AVC
Format/Info                              : Advanced Video Codec
Format profile                           : [email protected]
Format settings, CABAC                   : Yes
Format settings, ReFrames                : 2 frames
Codec ID                                 : V_MPEG4/ISO/AVC
Duration                                 : 1h 52mn
Bit rate                                 : 2 030 Kbps
Width                                    : 1 920 pixels
Height                                   : 1 080 pixels
Display aspect ratio                     : 16:9
Frame rate mode                          : Constant
Frame rate                               : 24.000 fps
Color space                              : YUV
Chroma subsampling                       : 4:2:0
Bit depth                                : 8 bits
Scan type                                : Progressive
Bits/(Pixel*Frame)                       : 0.041
Stream size                              : 1.59 GiB (84%)
Title                                    : 1080P - Filmbol.org
Language                                 : English
Default                                  : Yes
Forced                                   : No

Audio
ID                                       : 2
Format                                   : AC-3
Format/Info                              : Audio Coding 3
Mode extension                           : CM (complete main)
Format settings, Endianness              : Big
Codec ID                                 : A_AC3
Duration                                 : 1h 52mn
Bit rate mode                            : Constant
Bit rate                                 : 384 Kbps
Channel(s)                               : 6 channels
Channel positions                        : Front: L C R, Side: L R, LFE
Sampling rate                            : 48.0 KHz
Frame rate                               : 31.250 fps (1536 spf)
Compression mode                         : Lossy
Stream size                              : 309 MiB (16%)
Title                                    : Türkçe - Filmbol.org
Language                                 : Turkish
Default                                  : Yes
Forced                                   : No

Text
ID                                       : 3
Format                                   : UTF-8
Codec ID                                 : S_TEXT/UTF8
Codec ID/Info                            : UTF-8 Plain Text
Duration                                 : 1h 51mn
Bit rate                                 : 0 bps
Count of elements                        : 17
Stream size                              : 611 Bytes (0%)
Title                                    : KISIM
Language                                 : Turkish
Default                                  : Yes
Forced                                   : Yes



Film Detayları


Velvet Buzzshaw

Velvet Buzzshaw

Velvet Buzzshaw


Film Fragmanı


Film Detayları

Mini 1080P İndir



Mega linki şuan da gizli. Kullanıma açmak için konuya yorum yapın ve ardından sayfayı yenileyin.

Mega


rB7O

MediaFire ile indir

Google Drive linki şuan da gizli. Kullanıma açmak için konuya yorum yapın ve ardından sayfayı yenileyin.

Google Drive


Şuan Offine!
Şuan Offine!
ahleten Uzman Üye
**
Uzman Üye

  • Konular0
  • Mesajlar12
  • Rep puanı 0
teşekkürler
Şuan Offine!
Şuan Offine!
Aspirin46 Süper Üye
***
Super Üye

  • Konular0
  • Mesajlar57
  • Rep puanı 0
süper
Şuan Offine!
Şuan Offine!
fatih2719 Yeni Üye
*
Üye

  • Konular0
  • Mesajlar5
  • Rep puanı 0
tşk.ler Tongue Tongue Tongue Tongue
Şuan Offine!
Şuan Offine!
emrgnsy Yeni Üye
*
Üye

  • Konular0
  • Mesajlar2
  • Rep puanı 0
teşekkürler güzel
Şuan Offine!
Şuan Offine!
musti79 Uzman Üye
**
Uzman Üye

  • Konular0
  • Mesajlar16
  • Rep puanı 0
teşekkürler


Konu ile Alakalı Benzer Konular
Konular Yazar Yorumlar Okunma Son Yorum
Filmin Yayınlanma Tarihi: 2019
47 Metre Derinde: Kafes (47 Meters Down: Uncaged) - 2019 - TR+ORG - 1080P BroserBros 2 128 9 saat önce
Son Yorum: ömerk
Filmin Yayınlanma Tarihi: 2016
Jack Reacher: Asla Geri Dönme (J.R: Never Go Back) Türkçe Dublaj m1080P İndir BroserBros 6 2,301 10 saat önce
Son Yorum: Erenio0
Filmin Yayınlanma Tarihi: 2019
Godzilla 2: Canavarlar Kralı (King of the Monsters) Türkçe Dublaj BLURAY m1080P İndir BroserBros 32 2,442 , Saat: 19:05
Son Yorum: FCBTZR
Filmin Yayınlanma Tarihi: 2016
Kung Fu Panda 3 Türkçe Dublaj m1080P İndir BroserBros 16 7,461 , Saat: 09:32
Son Yorum: metlebision
Filmin Yayınlanma Tarihi: 2014
Godzilla (Godzilla) Türkçe Dublaj 1080P İndir BroserBros 5 2,068 , Saat: 01:35
Son Yorum: FCBTZR

Hızlı Menü: