Filmbol Forum Film İndir 720P v Velvet Buzzshaw (2019) Türkçe Dublaj BLURAY m720P İndir
Mega linklerinin şikayet edilmemesi için global erişime kapatıp sadece yorum yapanlara açıyoruz. Bu linkleri gizleme işlemini mecburen yapıyoruz ve yorum yapmanızın siteye değil size faydası vardır. Teşekürler yazmayı çok görüp, Random/Spam mesajlar atarak Mega linklerini açmaya çalışan kullanıcılara önce süresiz ban, devam ederse IP ban atacağız.
Filmbol'da moderatör olmak ister misiniz? Bizimle iletişime geçmek için tıklayın!
Velvet Buzzshaw (2019) Türkçe Dublaj BLURAY m720P İndir
BroserBros
Velvet Buzzshaw (2019) Türkçe Dublaj BLURAY m720P İndir
2
489
  • Derecelendirme: 0/5 - 0 oy
  • 1
  • 2
  • 3
  • 4
  • 5
Konuyu Okuyanlar:1 Ziyaretçi
Şuan Online!
Filmin Yayınlanma Tarihi: 2019 
WWW
Şuan Online!
BroserBros Kurucu Admin
*******
Admin





Ses Kodek: AC3


Audio Coding 3 (AC3)






Velvet Buzzshaw



Teknik Detaylar

Kod :
General
Complete name                            : Velvet.Buzzsaw.2019.m720p.NF.WEBRip.x264.TR.Filmbol.mkv
Format                                   : Matroska
Format version                           : Version 4 / Version 2
File size                                : 1.27 GiB
Duration                                 : 1h 52mn
Overall bit rate                         : 1 615 Kbps
Movie name                               : Velvet Buzzsaw (2019) - Filmbol.org
Encoded date                             : UTC 2019-08-21 16:04:11
Writing application                      : mkvmerge v35.0.0 ('All The Love In The World') 64-bit
Writing library                          : libebml v1.3.9 + libmatroska v1.5.2

Video
ID                                       : 1
Format                                   : AVC
Format/Info                              : Advanced Video Codec
Format profile                           : [email protected]
Format settings, CABAC                   : Yes
Format settings, ReFrames                : 2 frames
Codec ID                                 : V_MPEG4/ISO/AVC
Duration                                 : 1h 52mn
Bit rate                                 : 1 229 Kbps
Width                                    : 1 280 pixels
Height                                   : 720 pixels
Display aspect ratio                     : 16:9
Frame rate mode                          : Constant
Frame rate                               : 24.000 fps
Color space                              : YUV
Chroma subsampling                       : 4:2:0
Bit depth                                : 8 bits
Scan type                                : Progressive
Bits/(Pixel*Frame)                       : 0.056
Stream size                              : 989 MiB (76%)
Title                                    : 720P - Filmbol.org
Default                                  : Yes
Forced                                   : No

Audio
ID                                       : 2
Format                                   : AC-3
Format/Info                              : Audio Coding 3
Mode extension                           : CM (complete main)
Format settings, Endianness              : Big
Codec ID                                 : A_AC3
Duration                                 : 1h 52mn
Bit rate mode                            : Constant
Bit rate                                 : 384 Kbps
Channel(s)                               : 6 channels
Channel positions                        : Front: L C R, Side: L R, LFE
Sampling rate                            : 48.0 KHz
Frame rate                               : 31.250 fps (1536 spf)
Compression mode                         : Lossy
Stream size                              : 309 MiB (24%)
Title                                    : Türkçe - Filmbol.org
Language                                 : Turkish
Default                                  : Yes
Forced                                   : No

Text
ID                                       : 3
Format                                   : UTF-8
Codec ID                                 : S_TEXT/UTF8
Codec ID/Info                            : UTF-8 Plain Text
Duration                                 : 1h 51mn
Bit rate                                 : 0 bps
Count of elements                        : 17
Stream size                              : 611 Bytes (0%)
Title                                    : KISIM
Language                                 : Turkish
Default                                  : Yes
Forced                                   : Yes



Film Detayları


Velvet Buzzshaw

Velvet Buzzshaw

Velvet Buzzshaw


Film Fragmanı


Film Detayları

Mini 720P İndir



Mega linki şuan da gizli. Kullanıma açmak için konuya yorum yapın ve ardından sayfayı yenileyin.

Mega


rB7J
Şuan Offine!
Şuan Offine!
NONAMES Yeni Üye
*
Üye

  • Konular0
  • Mesajlar3
  • Rep puanı 0
Angel
Şuan Offine!
Şuan Offine!
Serhat1 Uzman Üye
**
Uzman Üye

  • Konular0
  • Mesajlar8
  • Rep puanı 0
Mütişş


Konu ile Alakalı Benzer Konular
Konular Yazar Yorumlar Okunma Son Yorum
Filmin Yayınlanma Tarihi: 2019
Silahlar Fora (Guns Akimbo) - 2019 - TR+ORG - 720P | tt6902676 TheSteeL 4 157 10-04-2021, Saat: 16:21
Son Yorum: TheSteeL
Filmin Yayınlanma Tarihi: 2019
Barbarları Beklerken (Waiting for the Barbarians) - 2019 - TR+ORG - 720P | tt6149154 TheSteeL 2 37 09-04-2021, Saat: 19:41
Son Yorum: TheSteeL
Filmin Yayınlanma Tarihi: 2019
Polaroid (Polaroid) - 2019 - TR+ORG - 720P | tt5598292 TheSteeL 0 51 07-04-2021, Saat: 01:10
Son Yorum: TheSteeL
Filmin Yayınlanma Tarihi: 2019
Terminatör: Kara Kader (Terminator: Dark Fate) - 2019 - TR+ORG - 720P | tt6450804 BroserBros 4 366 06-04-2021, Saat: 22:16
Son Yorum: BroserBros
Filmin Yayınlanma Tarihi: 2019
O Bölüm 2 (It Chapter Two) - 2019 - TR+ORG - 720P | tt7349950 BroserBros 8 1,505 06-04-2021, Saat: 22:05
Son Yorum: BroserBros

Hızlı Menü: