Filmbol Forum Film İndir 720P v Avengers: Endgame (2019) Türkçe Dublaj BLURAY m720P İndir
Mega linklerinin şikayet edilmemesi için global erişime kapatıp sadece yorum yapanlara açıyoruz. Bu linkleri gizleme işlemini mecburen yapıyoruz ve yorum yapmanızın siteye değil size faydası vardır. Teşekürler yazmayı çok görüp, Random/Spam mesajlar atarak Mega linklerini açmaya çalışan kullanıcılara önce süresiz ban, devam ederse IP ban atacağız.
Filmbol'da moderatör olmak ister misiniz? Bizimle iletişime geçmek için tıklayın!
Avengers: Endgame (2019) Türkçe Dublaj BLURAY m720P İndir
BroserBros
Avengers: Endgame (2019) Türkçe Dublaj BLURAY m720P İndir
25
2571
  • Derecelendirme: 0/5 - 0 oy
  • 1
  • 2
  • 3
  • 4
  • 5
Konuyu Okuyanlar:1 Ziyaretçi
Şuan Online!
Filmin Yayınlanma Tarihi: 2019 
WWW
Şuan Online!
BroserBros Kurucu Admin
*******
Admin





Ses Kodek: AC3


Audio Coding 3 (AC3)






Avengers Endgame



Teknik Detaylar


Kod :
General
Complete name                            : Avengers.Endgame.2019.M720P.BLURAY.x264.TR.Filmbol.mkv
Format                                   : Matroska
Format version                           : Version 4 / Version 2
File size                                : 1.75 GiB
Duration                                 : 3h 1mn
Overall bit rate                         : 1 386 Kbps
Encoded date                             : UTC 2019-08-20 07:50:43
Writing application                      : mkvmerge v35.0.0 ('All The Love In The World') 64-bit
Writing library                          : libebml v1.3.9 + libmatroska v1.5.2

Video
ID                                       : 1
Format                                   : AVC
Format/Info                              : Advanced Video Codec
Format profile                           : [email protected]
Format settings, CABAC                   : Yes
Format settings, ReFrames                : 4 frames
Codec ID                                 : V_MPEG4/ISO/AVC
Duration                                 : 3h 1mn
Bit rate                                 : 1 000 Kbps
Width                                    : 1 280 pixels
Height                                   : 534 pixels
Display aspect ratio                     : 2.40:1
Original display aspect ratio            : 2.40:1
Frame rate mode                          : Constant
Frame rate                               : 23.976 (24000/1001) fps
Color space                              : YUV
Chroma subsampling                       : 4:2:0
Bit depth                                : 8 bits
Scan type                                : Progressive
Bits/(Pixel*Frame)                       : 0.061
Stream size                              : 1.27 GiB (72%)
Writing library                          : x264 core 157
Default                                  : Yes
Forced                                   : No

Audio
ID                                       : 2
Format                                   : AC-3
Format/Info                              : Audio Coding 3
Mode extension                           : CM (complete main)
Format settings, Endianness              : Big
Codec ID                                 : A_AC3
Duration                                 : 3h 1mn
Bit rate mode                            : Constant
Bit rate                                 : 384 Kbps
Channel(s)                               : 6 channels
Channel positions                        : Front: L C R, Side: L R, LFE
Sampling rate                            : 48.0 KHz
Frame rate                               : 31.250 fps (1536 spf)
Compression mode                         : Lossy
Delay relative to video                  : 1s 0ms
Stream size                              : 498 MiB (28%)
Language                                 : Turkish
Default                                  : Yes
Forced                                   : No


Film Detayları


Avengers Endgame

Avengers Endgame

Avengers Endgame


Film Fragmanı


Film Detayları

Mini 720P İndir


Uptobox ile indir


Mega linki şuan da gizli. Kullanıma açmak için konuya yorum yapın ve ardından sayfayı yenileyin.

Mega


f0v1
Şuan Offine!
Şuan Offine!
berkan Uzman Üye
**
Uzman Üye

  • Konular0
  • Mesajlar6
  • Rep puanı 0
çok güzel bir film ama inşallah sinema çekimi değildir
Şuan Online!
Şuan Online!
BroserBros Kurucu Admin
*******
Admin

Merhaba berkan, sinema çekimi yayınlar yapmıyoruz. Linkler hazırlanmak üzere, lütfen 10 dakika bekle. Teşekkürler
Şuan Offine!
Şuan Offine!
Yunosal31 Yeni Üye
*
Üye

  • Konular0
  • Mesajlar3
  • Rep puanı 0
Naber
Şuan Offine!
Filmin Yayınlanma Tarihi: 2019 
Şuan Offine!
Vergte Yeni Üye
*
Üye

  • Konular0
  • Mesajlar2
  • Rep puanı 0
Film çok güzel tekrar buradan izleyeceğim.
Şuan Offine!
Şuan Offine!
Arif DEĞERCAN Süper Üye
***
Super Üye

  • Konular0
  • Mesajlar33
  • Rep puanı 0
Kaç aydır bu filmi bekliyordum sonunda geldi..
Şuan Offine!
Şuan Offine!
Leo12 Uzman Üye
**
Uzman Üye

  • Konular0
  • Mesajlar7
  • Rep puanı 0
Tesekkurler
Şuan Offine!
Şuan Offine!
agresif Uzman Üye
**
Uzman Üye

  • Konular0
  • Mesajlar21
  • Rep puanı 0
izleyelim bakalım
Şuan Offine!
Şuan Offine!
Selocan Uzman Üye
**
Uzman Üye

  • Konular0
  • Mesajlar14
  • Rep puanı 0
Film eminim güzeldir, teşekkürer.
Şuan Offine!
Şuan Offine!
Denyomt Yeni Üye
*
Üye

  • Konular0
  • Mesajlar1
  • Rep puanı 0
Film cok güzel tavsiye ederim


Konu ile Alakalı Benzer Konular
Konular Yazar Yorumlar Okunma Son Yorum
Filmin Yayınlanma Tarihi: 2019
Silahlar Fora (Guns Akimbo) - 2019 - TR+ORG - 720P | tt6902676 TheSteeL 4 157 10-04-2021, Saat: 16:21
Son Yorum: TheSteeL
Filmin Yayınlanma Tarihi: 2019
Barbarları Beklerken (Waiting for the Barbarians) - 2019 - TR+ORG - 720P | tt6149154 TheSteeL 2 37 09-04-2021, Saat: 19:41
Son Yorum: TheSteeL
Filmin Yayınlanma Tarihi: 2019
Polaroid (Polaroid) - 2019 - TR+ORG - 720P | tt5598292 TheSteeL 0 51 07-04-2021, Saat: 01:10
Son Yorum: TheSteeL
Filmin Yayınlanma Tarihi: 2019
Terminatör: Kara Kader (Terminator: Dark Fate) - 2019 - TR+ORG - 720P | tt6450804 BroserBros 4 366 06-04-2021, Saat: 22:16
Son Yorum: BroserBros
Filmin Yayınlanma Tarihi: 2019
O Bölüm 2 (It Chapter Two) - 2019 - TR+ORG - 720P | tt7349950 BroserBros 8 1,505 06-04-2021, Saat: 22:05
Son Yorum: BroserBros

Hızlı Menü: