Filmbol Forum Film İndir 1080P v Avengers: Endgame (2019) Türkçe Dublaj BLURAY m1080P İndir
Mega linklerinin şikayet edilmemesi için global erişime kapatıp sadece yorum yapanlara açıyoruz. Bu linkleri gizleme işlemini mecburen yapıyoruz ve yorum yapmanızın siteye değil size faydası vardır. Teşekürler yazmayı çok görüp, Random/Spam mesajlar atarak Mega linklerini açmaya çalışan kullanıcılara önce süresiz ban, devam ederse IP ban atacağız.
Filmbol'da moderatör olmak ister misiniz? Bizimle iletişime geçmek için tıklayın!
Avengers: Endgame (2019) Türkçe Dublaj BLURAY m1080P İndir
BroserBros
Avengers: Endgame (2019) Türkçe Dublaj BLURAY m1080P İndir
71
6105
  • Derecelendirme: 5/5 - 1 oy
  • 1
  • 2
  • 3
  • 4
  • 5
Konuyu Okuyanlar:3 Ziyaretçi
Şuan Online!
Filmin Yayınlanma Tarihi: 2019 
WWW
Şuan Online!
BroserBros Kurucu Admin
*******
Admin





Ses Kodek: AC3


Audio Coding 3 (AC3)






Avengers Endgame



Teknik Detaylar


Kod :
General
Complete name                            : Avengers.Endgame.2019.M1080P.BLURAY.x264.TR.Filmbol.mkv
Format                                   : Matroska
Format version                           : Version 4 / Version 2
File size                                : 3.02 GiB
Duration                                 : 3h 1mn
Overall bit rate                         : 2 386 Kbps
Movie name                               : Avengers Endgame (2019) - Fİlmbol.org
Encoded date                             : UTC 2019-08-20 10:34:43
Writing application                      : mkvmerge v35.0.0 ('All The Love In The World') 64-bit
Writing library                          : libebml v1.3.9 + libmatroska v1.5.2

Video
ID                                       : 1
Format                                   : AVC
Format/Info                              : Advanced Video Codec
Format profile                           : [email protected]
Format settings, CABAC                   : Yes
Format settings, ReFrames                : 4 frames
Codec ID                                 : V_MPEG4/ISO/AVC
Duration                                 : 3h 1mn
Bit rate                                 : 2 000 Kbps
Width                                    : 1 920 pixels
Height                                   : 800 pixels
Display aspect ratio                     : 2.40:1
Frame rate mode                          : Constant
Frame rate                               : 23.976 (24000/1001) fps
Color space                              : YUV
Chroma subsampling                       : 4:2:0
Bit depth                                : 8 bits
Scan type                                : Progressive
Bits/(Pixel*Frame)                       : 0.054
Stream size                              : 2.53 GiB (84%)
Title                                    : 1080P - Fİlmbol.org
Writing library                          : x264 core 157
Default                                  : Yes
Forced                                   : Yes

Audio
ID                                       : 2
Format                                   : AC-3
Format/Info                              : Audio Coding 3
Mode extension                           : CM (complete main)
Format settings, Endianness              : Big
Codec ID                                 : A_AC3
Duration                                 : 3h 1mn
Bit rate mode                            : Constant
Bit rate                                 : 384 Kbps
Channel(s)                               : 6 channels
Channel positions                        : Front: L C R, Side: L R, LFE
Sampling rate                            : 48.0 KHz
Frame rate                               : 31.250 fps (1536 spf)
Compression mode                         : Lossy
Delay relative to video                  : 1s 0ms
Stream size                              : 498 MiB (16%)
Title                                    : Türkçe - Filmbol.org
Language                                 : Turkish
Default                                  : Yes
Forced                                   : Yes


Film Detayları


Avengers Endgame

Avengers Endgame

Avengers Endgame


Film Fragmanı


Film Detayları

Mini 1080P İndir


Uptobox ile indir

Mega linki şuan da gizli. Kullanıma açmak için konuya yorum yapın ve ardından sayfayı yenileyin.

Mega


MediaFire ile indir

Google Drive linki şuan da gizli. Kullanıma açmak için konuya yorum yapın ve ardından sayfayı yenileyin.

Google Drive

Şuan Offine!
Şuan Offine!
berkan Uzman Üye
**
Uzman Üye

  • Konular0
  • Mesajlar6
  • Rep puanı 0
çok iyi
Şuan Offine!
Şuan Offine!
Rustu_1905 Uzman Üye
**
Uzman Üye

  • Konular0
  • Mesajlar14
  • Rep puanı 0
çok iyi
Şuan Offine!
Şuan Offine!
ahmetyee1 Süper Üye
***
Super Üye

  • Konular3
  • Mesajlar59
  • Rep puanı 0
işte bunu bekliyordum
Şuan Offine!
Şuan Offine!
everest Yeni Üye
*
Üye

  • Konular0
  • Mesajlar1
  • Rep puanı 0
Teşekkür
Şuan Offine!
Şuan Offine!
strongheros Yeni Üye
*
Üye

  • Konular0
  • Mesajlar1
  • Rep puanı 0
teşekkürler
Şuan Offine!
Şuan Offine!
tunit55 Uzman Üye
**
Uzman Üye

  • Konular0
  • Mesajlar6
  • Rep puanı 0
süper ötesi
Smile Smile Smile
Şuan Offine!
Şuan Offine!
Mmelihmanisa Yeni Üye
*
Üye

  • Konular0
  • Mesajlar1
  • Rep puanı 0
Çok iyi be
Şuan Offine!
Şuan Offine!
sametmercan53 Yeni Üye
*
Üye

  • Konular0
  • Mesajlar1
  • Rep puanı 0
harikasın
Şuan Offine!
Şuan Offine!
enesgnydnn Yeni Üye
*
Üye

  • Konular0
  • Mesajlar1
  • Rep puanı 0
mükemmel


Konu ile Alakalı Benzer Konular
Konular Yazar Yorumlar Okunma Son Yorum
Filmin Yayınlanma Tarihi: 2019
Aslan Kral (The Lion King) - 2019 - TR+ORG - 1080P | tt6105098 BroserBros 49 5,141 , Saat: 19:18
Son Yorum: BroserBros
Filmin Yayınlanma Tarihi: 2016
Jack Reacher: Asla Geri Dönme (J.R: Never Go Back) Türkçe Dublaj m1080P İndir BroserBros 7 2,311 , Saat: 17:24
Son Yorum: muradims
Filmin Yayınlanma Tarihi: 2019
47 Metre Derinde: Kafes (47 Meters Down: Uncaged) - 2019 - TR+ORG - 1080P BroserBros 2 131 11-04-2021, Saat: 22:59
Son Yorum: ömerk
Filmin Yayınlanma Tarihi: 2019
Godzilla 2: Canavarlar Kralı (King of the Monsters) Türkçe Dublaj BLURAY m1080P İndir BroserBros 32 2,447 11-04-2021, Saat: 19:05
Son Yorum: FCBTZR
Filmin Yayınlanma Tarihi: 2016
Kung Fu Panda 3 Türkçe Dublaj m1080P İndir BroserBros 16 7,472 11-04-2021, Saat: 09:32
Son Yorum: metlebision

Hızlı Menü: