Hoşgeldin, Ziyaretçi: Giriş Yap Üye Ol


stats
Adblock'u kapattıysanız tıklayın.
Hoşgeldiniz!
Filmbol'u tercih ettiğiniz için teşekkürler, ancak ablock kullanarak devam edemezsiniz.
Merak etmeyin. Heryerden ardı ardına çıkan reklamlar görmeyeceksiniz :)

Sadece site içi 1 reklam göreceksin ve bu site gezintini etkilemeyecek.
Konuyu Oyla:
  • Derecelendirme: 0/5 - 0 oy
  • 1
  • 2
  • 3
  • 4
  • 5
Title: Zoolander 2 Türkçe Dublaj m1080P İndir
Gösterim Stili
#1
Filmin Yayınlanma Tarihi: 2016 

indirme türü


Bulut + Premium

vizyon tarihi


08 Nisan 2016

Boyutlar


1,58GB

diller


[TR]

altyazilar


Yok [Eklenebilir]

Video Format: Mkv


Matroska (.MKV)

Video Detay


MPEG-4, 1999 Kbps, 1,39 GB

imdb puanı


4,8 / 10,0 / 50,000

süre


102 dakika

Ses Kodek: AC3


Audio Coding 3 (AC3)

Ses Detay


224 Kbps, 2 Kanal, 163 Mb

rarsifresi


filmbol.org

Editör Puanı


5,5

Genislik Yukseklik


1920x808

sürüm


x264 | m1080P



Film Detayları

Yönetmenliğini Ben Stiller'ın üstlendiği 2001 tarihli Zoolander filmi 15 yıl aradan sonra yeniden beyaz perdeye konuk oluyor. Zamanının moda ikonu olan modelimiz Derek, bu defa Hansel ile birlikte tekrardan podyumlar dönmeye karar verirler. Ancak zaman Derek ve  Hansel'e acımasız davranır. İşler tahmin ettikleri gibi kolay olmayacaktır. Podyumlar artık sosyal medyanın elindedir.   

Filmin yönetmen koltuğunda Ben Stiller oturuyor. Senaryo yazarları Justin theroux ve Ben Stiller & John Hamburg ve Nicholas Stoller var.  Owen Wilson, Ben Stiller  ve Will Ferrell'ı başrollerinde izleyeceğimiz filmde Penelope Cruz, Justin Bieber ve Milla Jovovich gibi ünlü isimler kamera karşısına geçiyor.


Teknik Detaylar
Kod:
General
Format                                   : Matroska
Format version                           : Version 4 / Version 2
File size                                : 1.58 GiB
Duration                                 : 1h 41mn
Overall bit rate                         : 2 221 Kbps
Movie name                               : Zoolander 2 - Filmbol.org

Video
ID                                       : 1
Format                                   : AVC
Format/Info                              : Advanced Video Codec
Format profile                           : High@L4.1
Format settings, CABAC                   : Yes
Format settings, ReFrames                : 5 frames
Codec ID                                 : V_MPEG4/ISO/AVC
Duration                                 : 1h 41mn
Bit rate                                 : 1 999 Kbps
Width                                    : 1 920 pixels
Height                                   : 808 pixels
Display aspect ratio                     : 2.40:1
Frame rate mode                          : Constant
Frame rate                               : 23.976 fps
Color space                              : YUV
Chroma subsampling                       : 4:2:0
Bit depth                                : 8 bits
Scan type                                : Progressive
Bits/(Pixel*Frame)                       : 0.054
Stream size                              : 1.39 GiB (88%)
Title                                    : m1080P - Filmbol.org
Writing library                          : x264 core 148 r2638 7599210
Default                                  : Yes
Forced                                   : No
Color primaries                          : BT.709
Matrix coefficients                      : BT.709

Audio
ID                                       : 2
Format                                   : AC-3
Format/Info                              : Audio Coding 3
Mode extension                           : CM (complete main)
Format settings, Endianness              : Big
Codec ID                                 : A_AC3
Duration                                 : 1h 41mn
Bit rate mode                            : Constant
Bit rate                                 : 224 Kbps
Channel(s)                               : 2 channels
Channel positions                        : Front: L R
Sampling rate                            : 48.0 KHz
Bit depth                                : 16 bits
Compression mode                         : Lossy
Stream size                              : 163 MiB (10%)
Title                                    : Türkçe - Filmbol.org
Language                                 : Turkish
Default                                  : Yes
Forced                                   : No




Film Detayları


Zoolander 2

Zoolander 2

Zoolander 2

Zoolander 2

Zoolander 2


Film Fragmanı


Film Detayları

Mini 1080P İndir


Turbobit İle İndir

Mega ile indir

Uptobox ile indir

Mypcloud ile indir

 
Cevapla
#2
İzlemiştim ve çok gülmüştüm *-*

bu arada forumun ilk yorumu galiba Big Grin
 
Cevapla
#3
(26-02-2017, Saat: 17:06)Raxing Adlı Kullanıcıdan Alıntı: İzlemiştim ve çok gülmüştüm *-*

bu arada forumun ilk yorumu galiba Big Grin

Merhaba raxing, ilgin için teşekkürler. Filmbol Forum'un ilk yorumunu attın. Filmbol tarihi, seni altın harfler ile yazacak.  Wink
 
Cevapla
#4
Teşekkürler Big Grin forumun ilk mesajı Big Grin bu arada moderatör başvurumu incelersen sevinirim

Şimdiden teşekkürler *-*
 
Cevapla
  


Hızlı Menü:


Browsing: 1 Ziyaretçi