Hoşgeldin, Ziyaretçi: Giriş Yap Üye Ol


Konuyu Oyla:
  • Derecelendirme: 0/5 - 0 oy
  • 1
  • 2
  • 3
  • 4
  • 5
Zamanın Ötesinde (Predestination) Türkçe Dublaj m1080P İndir
#1
Filmin Yayınlanma Tarihi: 2014 

indirme türü


Bulut + Premium

vizyon tarihi


28 Ağustos 2014

Boyutlar


1,46GB

diller


[TR]

altyazilar


Yok [Eklenebilir]

Video Format: Mkv


Matroska (.MKV)

Video Detay


MPEG-4, 2018 Kbps, 1,35 GB

imdb puanı


7,5 / 10,0 / 180,000

süre


97 dakika

Ses Kodek: MP3


MPEG-1 Audio Layer III (MP3)

Ses Detay


128 Kbps, 2 Kanal, 90 Mb

rarsifresi


filmbol.org

Editör Puanı


8,0

Genislik Yukseklik


1920x800

sürüm


x264 | m1080P




Film Detayları

Sıkı bir bilimkurgu filmi olan Predestination, zamanda seyahat edip olmuş ya da olası olayların önüne geçmeye veya suçluları yakalamaya çalışan bir zamansal ajanın hikayesini konu eder. Gizli bir serivise bağlı çalışan ajanın son görevi ise; 1975 yılında New York'ta yaptığı bir patlamada 11.000 insanın ölümünden sorumlu olan Fiyasko Bombacısı adlı kişiyi bulup bu patlamanın hiç yaşanmamış olmasını sağlamaktır... Görevi için 1970 yılına New York'ta bir barda, barmen olarak çalışmaya başlayan ajan orada “Evlenmemiş Anne” rumuzlu John isimli bir köşe yazarıyla tanışır. Küçük bir bar sohbetiyle başlayan ikilinin sohbeti, gecenin ilerleyen saatlerinde daha da derinleşir...

Tıpkı bir önceki filmlerinde olduğu gibi yine ünlü aktör Ethan Hawke ile işbirliği yapan Spierig Kardeşler bu sefer Looper ile Azınlık Raporu'nun karması olacak bir bilimkurgu-gerilim çeşitlemesine imza atıyorlar! Yılın sürpriz polisiye soslu bilimkurgusal hadiselerinden biri olmaya aday film kendi kulvarında bir hayli iddialı görünüyor!


Teknik Detaylar
Kod:
General
Format                                   : Matroska
Format version                           : Version 4 / Version 2
File size                                : 1.47 GiB
Duration                                 : 1h 37mn
Overall bit rate                         : 2 145 Kbps
Movie name                               : Kader - Filmbol.org
Video
ID                                       : 1
Format                                   : AVC
Format/Info                              : Advanced Video Codec
Format profile                           : High@L4.1
Format settings, CABAC                   : Yes
Format settings, ReFrames                : 4 frames
Codec ID                                 : V_MPEG4/ISO/AVC
Duration                                 : 1h 37mn
Bit rate                                 : 2 018 Kbps
Width                                    : 1 920 pixels
Height                                   : 800 pixels
Display aspect ratio                     : 2.40:1
Frame rate mode                          : Constant
Frame rate                               : 23.976 fps
Color space                              : YUV
Chroma subsampling                       : 4:2:0
Bit depth                                : 8 bits
Scan type                                : Progressive
Bits/(Pixel*Frame)                       : 0.055
Stream size                              : 1.35 GiB (92%)
Title                                    : m1080P - Filmbol.org
Writing library                          : x264 core 142 r2479 dd79a61
Default                                  : Yes
Forced                                   : No
Color primaries                          : BT.709
Matrix coefficients                      : BT.709

Audio
ID                                       : 2
Format                                   : MPEG Audio
Format version                           : Version 1
Format profile                           : Layer 3
Mode                                     : Joint stereo
Mode extension                           : MS Stereo
Codec ID                                 : A_MPEG/L3
Codec ID/Hint                            : MP3
Duration                                 : 1h 37mn
Bit rate mode                            : Constant
Bit rate                                 : 128 Kbps
Channel(s)                               : 2 channels
Sampling rate                            : 48.0 KHz
Compression mode                         : Lossy
Stream size                              : 89.6 MiB (6%)
Title                                    : Türkçe - Filmbol.org
Writing library                          : LAME3.99r
Encoding settings                        : -m j -V 4 -q 2 -lowpass 17 -b 128
Language                                 : Turkish
Default                                  : Yes
Forced                                   : No




Film Detayları


Zamanin Otesinde

Zamanin Otesinde

Zamanin Otesinde

Zamanin Otesinde

Zamanin Otesinde


Film Fragmanı


Film Detayları

Mini 1080P İndir


Turbobit İle İndir

Mega ile indir

Uptobox ile indir

Cloud Ru ile indir

 
Alinti
  


Hızlı Menü:


Şu anda bu konuyu okuyanlar: 1 Ziyaretçi