Hoşgeldin, Ziyaretçi: Giriş Yap Üye Ol


stats
Adblock'u kapattıysanız tıklayın.
Hoşgeldiniz!
Filmbol'u tercih ettiğiniz için teşekkürler, ancak ablock kullanarak devam edemezsiniz.
Merak etmeyin. Heryerden ardı ardına çıkan reklamlar görmeyeceksiniz :)

Sadece site içi 1 reklam göreceksin ve bu site gezintini etkilemeyecek.
Konuyu Oyla:
  • Derecelendirme: 0/5 - 0 oy
  • 1
  • 2
  • 3
  • 4
  • 5
Yüce Sezar (Hail Ceaser) Türkçe Dublaj Brrip-Xvid İndir
#1
Filmin Yayınlanma Tarihi: 2016 

indirme türü


Bulut + Premium

vizyon tarihi


19 Şubat 2016

Boyutlar


1,14GB

diller


[TR]

altyazilar


Yok [Eklenebilir]

Video Format: Avi


Audio Video Interleave (.AVI)

Video Detay


MPEG-4, 1408 Kbps, 1,04 GB

imdb puanı


6,3 / 10,0 / 90,000

süre


106 dakika

Ses Kodek: MP3


MPEG-1 Audio Layer III (MP3)

Ses Detay


128 Kbps, 2 Kanal, 98 Mb

rarsifresi


filmbol.org

Editör Puanı


7,0

Genislik Yukseklik


720x384

sürüm


h263 | Brrip-Xvid



Film Detayları

Film şirketleri için çalışan Eddie Mannix adındaki bir adamın öyküsünü anlatan film, Mannix ekseninde dönemin Hollywood dünyasına mizahi bir bakış getiriyor. Bir stüdyo organizatörünün karşılaştığı pek çok 

sorunu çözmek zorunda kaldığı bir gününü anlatan filmin yapımcıları Coen Kardeşler. 4 Oscar ödüllü usta yönetmenler Joel Coen ve Ethan Coen'lerin yazıp yönettiği Yüce Sezar!'ın başrollerinde George Clooney, Josh Brolin, Tilda Swinton, Scarlett Johansson, Channing Tatum, Jonah Hill, Ralph Fiennes, Frances McDormand oynuyor.

Teknik Detaylar


Kod:
General
Format                                   : AVI
Format/Info                              : Audio Video Interleave
File size                                : 1.14 GiB
Duration                                 : 1h 46mn
Overall bit rate                         : 1 545 Kbps

Video
ID                                       : 0
Format                                   : MPEG-4 Visual
Format profile                           : Advanced Simple@L5
Format settings, BVOP                    : 2
Format settings, QPel                    : No
Format settings, GMC                     : No warppoints
Format settings, Matrix                  : Default (H.263)
Muxing mode                              : Packed bitstream
Codec ID                                 : XVID
Codec ID/Hint                            : XviD
Duration                                 : 1h 46mn
Bit rate                                 : 1 408 Kbps
Width                                    : 720 pixels
Height                                   : 384 pixels
Display aspect ratio                     : 1.85:1
Frame rate                               : 23.976 fps
Color space                              : YUV
Chroma subsampling                       : 4:2:0
Bit depth                                : 8 bits
Scan type                                : Progressive
Compression mode                         : Lossy
Bits/(Pixel*Frame)                       : 0.212
Stream size                              : 1.04 GiB (91%)
Writing library                          : XviD 66

Audio
ID                                       : 1
Format                                   : MPEG Audio
Format version                           : Version 1
Format profile                           : Layer 3
Mode                                     : Joint stereo
Codec ID                                 : 55
Codec ID/Hint                            : MP3
Duration                                 : 1h 46mn
Source duration                          : 1h 46mn
Bit rate mode                            : Constant
Bit rate                                 : 128 Kbps
Channel(s)                               : 2 channels
Sampling rate                            : 48.0 KHz
Compression mode                         : Lossy
Stream size                              : 97.1 MiB (8%)
Alignment                                : Aligned on interleaves
Interleave, duration                     : 42 ms (1.00 video frame)


Film Detayları


Hail Ceaser

Hail Ceaser

Hail Ceaser

Hail Ceaser

Hail Ceaser


Film Fragmanı


Film Detayları

Brrip İndir


Turbobit İle İndir

Mega ile indir

Uptobox ile indir

Cloud Ru ile indir

 
Cevapla
  


Konu ile Alakalı Benzer Konular
Konular Yazar Yorumlar Okunma Son Yorum
Filmin Yayınlanma Tarihi: 2018 Kaçış Planı 2: Hades (Escape Plan 2) Türkçe Dublaj Brrip Xvid İndir BroserBros 0 70 07-09-2019, Saat: 20:52
Son Yorum: BroserBros
Filmin Yayınlanma Tarihi: 2018 El Royale'de Zor Zamanlar (Bad Times at the El Royale) Türkçe Dublaj Brrip-Xvid İndir DRMOV 0 281 12-02-2019, Saat: 11:17
Son Yorum: DRMOV
Filmin Yayınlanma Tarihi: 2018 Öykü (The Tale) Türkçe Dublaj Brrip-Xvid İndir BroserBros 0 390 23-08-2018, Saat: 20:47
Son Yorum: BroserBros
Filmin Yayınlanma Tarihi: 2015 Geçmişten Gelen (The Gift) Türkçe Dublaj Brrip-Xvid İndir BroserBros 0 925 27-02-2017, Saat: 21:50
Son Yorum: BroserBros
Filmin Yayınlanma Tarihi: 2016 Manhattan Night (Manhattan Nocturne) Türkçe Dublaj Brrip-Xvid İndir BroserBros 0 784 30-01-2017, Saat: 15:23
Son Yorum: BroserBros

Hızlı Menü:


Şu anda bu konuyu okuyanlar: 1 Ziyaretçi