Filmbol Forum Film İndir BRRip XviD v Yesterday (2019) Türkçe Dublaj Brrip Xvid İndir
Filmbol'da moderatör olmak ister misiniz? Bizimle iletişime geçmek için tıklayın!
Yesterday (2019) Türkçe Dublaj Brrip Xvid İndir
BroserBros
Yesterday (2019) Türkçe Dublaj Brrip Xvid İndir
0
265
  • Derecelendirme: 0/5 - 0 oy
  • 1
  • 2
  • 3
  • 4
  • 5
Konuyu Okuyanlar:1 Ziyaretçi
Şuan Online!
Filmin Yayınlanma Tarihi: 2019 
Şuan Online!
BroserBros Kurucu Admin
*******
Admin

indirme türü


Bulut + Premium

Vizyon Tarihi


28 Haziran 2019

Boyutlar


1,41

diller


[TR]

altyazilar


KISIM [Eklenebilir]

Video Format: Avi


Audio Video Interleave (.AVI)

Video Detay


MPEG-4, 1598Kbps, 1,30GB

imdb puanı


6,9 / 10,0 / 70,000

süre


116 dakika

Ses Kodek: MP3


MPEG-1 Audio Layer III (MP3)

Ses Detay


128 Kbps, 2 Kanal, 106Mb

Editör Puanı


7,0

Genislik Yukseklik


720-302

sürüm


h263 | Brrip Xvid




Yesterday


Film Detayları

Yesterday, kendisinden başka dünyada kimsenin efsanevi müzik grubu The Beatles'ı bilmediğini fark eden bir adamın hikayesini konu ediyor. Jack Malik, küçük bir İngiliz kasabasında yaşayan ve ünlü olma hayalleri yavaş yavaş suya düşen bir şarkıcı ve söz yazarıdır. Ancak her şey kötü gitse bile çocukluğundan beri yanında olan en yakın arkadaşı Ellie onu sonuna kadar desteklemeye devam eder. Tüm dünyada elektriklerin gittiği gizemli bir olay sırasında bir kaza geçiren Jack uyandığında şoke edici bir gerçekle yüzleşir: Dünyadaki kimse The Beatles grubunun varlığından haberdar değildir. Durumdan faydalanmaya karar veren Jack gelmiş geçmiş en iyi müzik grubunun şarkılarını kendisininmiş gibi söylemeye başlar. Amerikalı bir temsilci olan Debra’nın da yardımıyla şöhret basamaklarını hızla çıkar. Ancak yıldızı parladıkça, her zaman ona inanan Ellie’yi kaybetmeye başlar. Eski hayatından uzaklaşan Jack, geç olmadan ait olduğu yere geri dönmeli ve tek ihtiyacının aşk olduğunu kanıtlamalıdır.

Yesterday Filmi Imdb'den 70,000 kişi tarafından oylandı ve 6,9 puan aldı. Bu film için editör puanı 7,0 olarak belirlendi. İyi Seyirler!


Teknik Detaylar


Kod :
General
Complete name                            : Yesterday.2019.BRRip.XViD.TR.Filmbol.avi
Format                                   : AVI
Format/Info                              : Audio Video Interleave
File size                                : 1.41 GiB
Duration                                 : 1h 56mn
Overall bit rate                         : 1 739 Kbps

Video
ID                                       : 0
Format                                   : MPEG-4 Visual
Format profile                           : Simple@L5
Format settings, BVOP                    : No
Format settings, QPel                    : No
Format settings, GMC                     : No warppoints
Format settings, Matrix                  : Default (H.263)
Codec ID                                 : XVID
Codec ID/Hint                            : XviD
Duration                                 : 1h 56mn
Bit rate                                 : 1 598 Kbps
Width                                    : 720 pixels
Height                                   : 302 pixels
Display aspect ratio                     : 2.40:1
Frame rate                               : 23.976 (23976/1000) fps
Color space                              : YUV
Chroma subsampling                       : 4:2:0
Bit depth                                : 8 bits
Scan type                                : Progressive
Compression mode                         : Lossy
Bits/(Pixel*Frame)                       : 0.307
Stream size                              : 1.30 GiB (92%)
Writing library                          : Lavc58.35.100

Audio
ID                                       : 1
Format                                   : MPEG Audio
Format version                           : Version 1
Format profile                           : Layer 3
Mode                                     : Joint stereo
Codec ID                                 : 55
Codec ID/Hint                            : MP3
Duration                                 : 1h 56mn
Bit rate mode                            : Constant
Bit rate                                 : 128 Kbps
Channel(s)                               : 2 channels
Sampling rate                            : 48.0 KHz
Compression mode                         : Lossy
Stream size                              : 106 MiB (7%)
Alignment                                : Aligned on interleaves
Interleave, duration                     : 24 ms (0.58 video frame)

Film Detayları


Yesterday

Yesterday

Yesterday


Film Fragmanı


Film Detayları

Brrip İndir



Uptobox ile indir

LetsUpload ile indir

Mega ile indir

MediaFire ile indir



Konu ile Alakalı Benzer Konular
Konular Yazar Yorumlar Okunma Son Yorum
Filmin Yayınlanma Tarihi: 2019
Hain (The Traitor / Il traditore) - 2019 - TR - BRRip XviD BroserBros 0 26 , Saat: 16:04
Son Yorum: BroserBros
Filmin Yayınlanma Tarihi: 2020
All Together Now (All Together Now) - 2020 - TR - BRRip XviD BroserBros 0 21 , Saat: 15:49
Son Yorum: BroserBros
Filmin Yayınlanma Tarihi: 2018
Vita & Virginia (Vita ve Virginia) - 2018 - TR - BRRip XviD BroserBros 0 20 , Saat: 15:31
Son Yorum: BroserBros
Filmin Yayınlanma Tarihi: 2019
Ibiza (Ibiza) - 2019 - TR - BRRip XviD BroserBros 0 23 , Saat: 14:56
Son Yorum: BroserBros
Filmin Yayınlanma Tarihi: 2018
Yaramazlar Takımı: Zaman Yolcuları (Smeshariki. Dezha vyu) - 2018 - TR - BRRip XviD BroserBros 0 32 25-11-2020, Saat: 17:59
Son Yorum: BroserBros

Hızlı Menü: