Hoşgeldin, Ziyaretçi: Giriş Yap Üye Ol


stats
Adblock'u kapattıysanız tıklayın.
Hoşgeldiniz!
Filmbol'u tercih ettiğiniz için teşekkürler, ancak ablock kullanarak devam edemezsiniz.
Merak etmeyin. Heryerden ardı ardına çıkan reklamlar görmeyeceksiniz :)

Sadece site içi 1 reklam göreceksin ve bu site gezintini etkilemeyecek.
Konuyu Oyla:
  • Derecelendirme: 0/5 - 0 oy
  • 1
  • 2
  • 3
  • 4
  • 5
Title: Yeşil Rehber (Green Book) Türkçe Dublaj BLURAY m720P İndir
Gösterim Stili
#1
Filmin Yayınlanma Tarihi: 2018 

indirme türü


Bulut + Premium

vizyon tarihi


30 Kasım 2018

Boyutlar


1,13

diller


[TR]

altyazilar


KISIM [Eklenebilir]

Video Format: Mkv


Matroska (.MKV)

Video Detay


MPEG-4, 1050 Kbps, 0,97 GB

imdb puanı


8,2 / 10,0 / 230,000

süre


130 dakika

Ses Kodek: AC3


Audio Coding 3 (AC3)

Ses Detay


192 Kbps, 2 Kanal, 179 Mb

Editör Puanı


8,5

Genislik Yukseklik


720-360

sürüm


x264 | 720P






Yeşil Rehber




Film Detayları

Yeşil Rehber, ünlü bir piyanist ve konser turu kapsamında onun şoförü olarak çalışan Tony’nin hikayesini anlatıyor. Tony Lip, Bronx’taki bir İtalyan Amerikan mahallesinde yaşamaktadır. Ünlü Afro-Amerikalı piyanist Dr. Don Shirley ise konser turu için hazırlanmaktadır. Ünlü müzisyen tur kapsamında Manhattan’dan güneye doğru birçok yere gidecektir. Kendisi ile şehir şehir gezecek bir şoför arayışında olan Shirley, bir süredir işsiz olan Tony’yi işe alır. Tony, yolculuk sırasında Afro-Amerikalılar için güvenli olan güzergahları kullanabilmek için “The Green Book” isimli kılavuzdan yardım alır. Dr Shirley ve Tony çıktıkları bu yolculukta ırkçılıkla, tehlikeyle ve beklenmedik nezaketle karşılaşır. İkili bu zorlu yolculuklarında farklılıklarını bir kenara bırakmak zorundadır.
En İyi Film Oscar'ının sahibi olan Viggo Mortensen ile Ay Işığı filmi ile Oscar’ı kazanan Mahershala Ali’nin başrolünü üstlendiği dram türündeki filmin yönetmen koltuğunda Peter Farrelly oturuyor. Senaryosunu yönetmen Farrelly, Brian Hayes Currie ve Nick Vallelonga’nın birlikte kaleme aldığı filmin oyuncu kadrosunda Linda Cardellini, Don Stark, David An, Sebastian Maniscalco gibi isimler yer alıyor.
Yeşil Rehber (Green Book) Filmi Imdb'den 230,000 kişi tarafından oylandı ve 8,2 puan aldı. Bu film için editör puanı 8,5 olarak belirlendi. İyi Seyirler!


Teknik Detaylar


Kod:
General
Complete name                            : Yeşil.Rehber.2018.m720p.BLURAY.x264.TR.mkv
Format                                   : Matroska
Format version                           : Version 4 / Version 2
File size                                : 1.13 GiB
Duration                                 : 2h 10mn
Overall bit rate                         : 1 243 Kbps
Movie name                               : Yeşil Rehber (2018) - Filmbol.org
Encoded date                             : UTC 2019-07-28 09:14:16
Writing application                      : mkvmerge v35.0.0 ('All The Love In The World') 64-bit
Writing library                          : libebml v1.3.9 + libmatroska v1.5.2

Video
ID                                       : 1
Format                                   : AVC
Format/Info                              : Advanced Video Codec
Format profile                           : High@L4.1
Format settings, CABAC                   : Yes
Format settings, ReFrames                : 4 frames
Codec ID                                 : V_MPEG4/ISO/AVC
Duration                                 : 2h 10mn
Bit rate                                 : 1 050 Kbps
Width                                    : 1 280 pixels
Height                                   : 634 pixels
Display aspect ratio                     : 2.017
Frame rate mode                          : Constant
Frame rate                               : 23.976 (24000/1001) fps
Color space                              : YUV
Chroma subsampling                       : 4:2:0
Bit depth                                : 8 bits
Scan type                                : Progressive
Bits/(Pixel*Frame)                       : 0.054
Stream size                              : 977 MiB (84%)
Title                                    : 720P - Filmbol.org
Writing library                          : x264 core 157
Default                                  : Yes
Forced                                   : No

Audio
ID                                       : 2
Format                                   : AC-3
Format/Info                              : Audio Coding 3
Mode extension                           : CM (complete main)
Format settings, Endianness              : Big
Codec ID                                 : A_AC3
Duration                                 : 2h 10mn
Bit rate mode                            : Constant
Bit rate                                 : 192 Kbps
Channel(s)                               : 2 channels
Channel positions                        : Front: L R
Sampling rate                            : 48.0 KHz
Frame rate                               : 31.250 fps (1536 spf)
Compression mode                         : Lossy
Stream size                              : 179 MiB (15%)
Title                                    : Türkçe - Filmbol.org
Language                                 : Turkish
Default                                  : Yes
Forced                                   : No

Text
ID                                       : 3
Format                                   : UTF-8
Codec ID                                 : S_TEXT/UTF8
Codec ID/Info                            : UTF-8 Plain Text
Duration                                 : 2h 2mn
Bit rate                                 : 1 bps
Count of elements                        : 46
Stream size                              : 1.77 KiB (0%)
Title                                    : KISIM
Language                                 : Turkish
Default                                  : Yes
Forced                                   : Yes


Film Detayları


Yeşil Rehber

Yeşil Rehber

Yeşil Rehber




Film Fragmanı


Film Detayları

Mini 720P İndir


Uptobox ile indir

LetsUpload ile indir

Mega Upload ile indir


Mega linki şuan da gizli. Kullanıma açmak için konuya yorum yapın ve ardından sayfayı yenileyin. Ayrıca bu linki açtığınızda reklamsız olarak erişebileceğinizi unutmayın.

Mega


6y80
 
Cevapla
#2
.....
 
Cevapla
#3
teşekkürler
 
Cevapla
#4
Teşekkürler
 
Cevapla
#5
 
Cevapla
#6
Heart Heart Heart
 
Cevapla
#7
bakcez
 
Cevapla
#8
teşekkürler Smile
 
Cevapla
  


Konu ile Alakalı Benzer Konular
Konular Yazar Yorumlar Okunma Son Yorum
Filmin Yayınlanma Tarihi: 2015 Chappie (Chappie) Türkçe Dublaj Bluray 720P İndir BroserBros 1 2,329 12-12-2019, Saat: 00:39
Son Yorum: BroserBros
Filmin Yayınlanma Tarihi: 2019 Atlantique (Atlantics) Türkçe Dublaj BLURAY m720P İndir BroserBros 1 225 06-12-2019, Saat: 14:03
Son Yorum: firatcan143
Filmin Yayınlanma Tarihi: 2019 El Camino: Bir Breaking Bad Filmi (2019) Türkçe Dublaj BLURAY m720P İndir BroserBros 3 364 06-12-2019, Saat: 12:51
Son Yorum: muti
Filmin Yayınlanma Tarihi: 2019 Gizli Takıntı (Secret Obsession) Türkçe Dublaj BLURAY m720P İndir BroserBros 2 243 29-11-2019, Saat: 18:15
Son Yorum: Serhat1
Filmin Yayınlanma Tarihi: 2018 Bohemian Rhapsody (2018) Türkçe Dublaj BLURAY m720P İndir BroserBros 6 208 25-11-2019, Saat: 16:34
Son Yorum: kaantorungs

Hızlı Menü:


Browsing: 1 Ziyaretçi