Filmbol Forum Film İndir BRRip XviD v Yerçekimi (Gravity) - 2013 - TR - BRRip XviD
Moderatör Alımları Başladı! Başvuru yapmak için tıklayın.
Filmbol Premium'da %50'e varan indirim fırsatı!
Yerçekimi (Gravity) - 2013 - TR - BRRip XviD
BroserBros
Yerçekimi (Gravity) - 2013 - TR - BRRip XviD
0
105
  • Derecelendirme: 0/5 - 0 oy
  • 1
  • 2
  • 3
  • 4
  • 5
Konuyu Okuyanlar:1 Ziyaretçi
Şuan Online!
Filmin Yayınlanma Tarihi: 2013 
Şuan Online!
BroserBros Kurucu Admin
*******
Admin

Vizyon Tarihi


11 Ekim 2013

imdb puanı


7,7 / 750,000

süre


91 dakika

Editör Puanı


9,0 / 10

Video Format: Avi


Audio Video Interleave (.AVI)

Ses Kodek: MP3


MPEG-1 Audio Layer III (MP3)

sürüm


h263 | BRRip XviD

Boyutlar


0,70 GB



 Yerçekimi



Dr. Ryan Stone zeki bir tıp mühendisidir ve emekliliğinden önce son görevine çıkan yetenekli ve deneyimli astronot Matt Kowalsky'nin yönetimindeki mekikte ilk uzay yolculuğuna çıkar. Herşey yolunda gibi görünürken rutin bir keşif yürüyüşü sırasında bir felaket yaşanır. Mekik çarpan bir cisim sonucu paramparça olur. İki bilim insanı uzay boşluğunda yapayalnız kalırlar. Yeryüzü ile iletişimleri tamamen kopmuştur ve sonsuz karanlıkla başbaşadırlar. Şimdi korkunun yerini panik alır, üstelik var olan sınırlı oksijenleri de gitgide tükenmektedir. İkili eve, dünyaya dönüş yolunu bulabilecek midir?

Yerçekimi (2013) (Gravity) Filmi Imdb'den 750,000 kişi tarafından oylandı ve 7,7 puan aldı. Bu film için editör puanı 9,0 olarak belirlendi. İyi Seyirler!

Teknik Detaylar

Kod :
General
Complete name                            : /root/Desktop/5/Yerçekimi.2013.BRRip.XviD.TR.Filmbol.avi
Format                                  : AVI
Format/Info                              : Audio Video Interleave
File size                                : 700 MiB
Duration                                : 1h 30mn
Overall bit rate                        : 1 076 Kbps

Video
ID                                      : 0
Format                                  : MPEG-4 Visual
Format profile                          : Advanced Simple@L5
Format settings, BVOP                    : 2
Format settings, QPel                    : No
Format settings, GMC                    : No warppoints
Format settings, Matrix                  : Default (H.263)
Codec ID                                : XVID
Codec ID/Hint                            : XviD
Duration                                : 1h 30mn
Bit rate                                : 942 Kbps
Width                                    : 656 pixels
Height                                  : 272 pixels
Display aspect ratio                    : 2.40:1
Frame rate                              : 23.976 (24000/1001) fps
Color space                              : YUV
Chroma subsampling                      : 4:2:0
Bit depth                                : 8 bits
Scan type                                : Progressive
Compression mode                        : Lossy
Bits/(Pixel*Frame)                      : 0.220
Stream size                              : 613 MiB (88%)
Writing library                          : XviD 1.2.1 (UTC 2008-12-04)

Audio
ID                                      : 1
Format                                  : MPEG Audio
Format version                          : Version 1
Format profile                          : Layer 3
Mode                                    : Joint stereo
Codec ID                                : 55
Codec ID/Hint                            : MP3
Duration                                : 1h 30mn
Bit rate mode                            : Constant
Bit rate                                : 128 Kbps
Channel(s)                              : 2 channels
Sampling rate                            : 48.0 KHz
Compression mode                        : Lossy
Stream size                              : 83.3 MiB (12%)
Alignment                                : Aligned on interleaves
Interleave, duration                    : 167 ms (4.00 video frames)
Interleave, preload duration            : 216 ms
Title                                    : gravity
Writing library                          : LAME3.99r
Encoding settings                        : -m j -V 4 -q 2 -lowpass 17 -b 128

Film Detayları


 Yerçekimi

 Yerçekimi

 Yerçekimi


Film Fragmanı


Film Detayları


Uptobox ile indir

1Fichier ile indir

1Fichier'den İndiremiyor musun? Tıklayın!


Mega ile indir

Bunun için üzgünüz ancak, bu linke sadece premium üyeler erişebilir.

Filmbol Cloud



Konu ile Alakalı Benzer Konular
Konular Yazar Yorumlar Okunma Son Yorum
Filmin Yayınlanma Tarihi: 2018
Gözbebeğim (Pupille) - 2018 - TR - BRRip XviD BroserBros 0 3 1 saat önce
Son Yorum: BroserBros
Filmin Yayınlanma Tarihi: 2019
Umut Vadisi (Hope Gap) - 2019 - TR - BRRip XviD BroserBros 0 4 1 saat önce
Son Yorum: BroserBros
Filmin Yayınlanma Tarihi: 2019
Cep Herkülü: Naim Süleymanoğlu (Cep Herkülü: Naim Süleymanoğlu) - 2019 - TR - BRRip XviD BroserBros 0 85 15-09-2020, Saat: 21:51
Son Yorum: BroserBros
Filmin Yayınlanma Tarihi: 2020
Berlin, Berlin (Berlin, Berlin) - 2020 - TR - BRRip XviD BroserBros 0 80 15-09-2020, Saat: 18:15
Son Yorum: BroserBros
Filmin Yayınlanma Tarihi: 2020
Malibu Rescue: Yeni Dalga (Malibu Rescue: The Next Wave) - 2020 - TR - BRRip XviD BroserBros 0 133 13-09-2020, Saat: 20:54
Son Yorum: BroserBros

Hızlı Menü: