Filmbol Forum Film İndir BRRip XviD v Yenilmezler: Sonsuzluk Savaşı (2018) Türkçe Dublaj Brrip-Xvid İndir
Moderatör Alımları Başladı! Başvuru yapmak için tıklayın.
Filmbol Premium'da %50'e varan indirim fırsatı!
Yenilmezler: Sonsuzluk Savaşı (2018) Türkçe Dublaj Brrip-Xvid İndir
BroserBros
Yenilmezler: Sonsuzluk Savaşı (2018) Türkçe Dublaj Brrip-Xvid İndir
7
3791
  • Derecelendirme: 5/5 - 1 oy
  • 1
  • 2
  • 3
  • 4
  • 5
Konuyu Okuyanlar:1 Ziyaretçi
Şuan Offine!
Filmin Yayınlanma Tarihi: 2018 
Şuan Offine!
BroserBros Kurucu Admin
*******
Admin

indirme türü


Bulut + Premium

Vizyon Tarihi


27 Nisan 2018

Boyutlar


1,80

diller


[TR]

altyazilar


Yok [Eklenebilir]

Video Format: Avi


Audio Video Interleave (.AVI)

Video Detay


MPEG-4, 1598 Kbps, 1,67 GB

imdb puanı


8,7 / 10,0 / 440,000

süre


149 dakika

Ses Kodek: MP3


MPEG-1 Audio Layer III (MP3)

Ses Detay


128 Kbps, 2 Kanal, 137 Mb

rarsifresi


filmbol.org

Editör Puanı


9,0

Genislik Yukseklik


720x302

sürüm


h263 | Brrip-Xvid


Film Detayları

Dünyanın şuana kadar gördüğü en büyük tehdit yaklaşıyor, Kahramanlar ise Iron Man ve Captain America arasında çıkan tartışmalar yüzünden ikiye bölünmüş durumda. Thanos, sınırsız güç kaynağı elde etmek için gerekli son taşları almak için dünyadadır ve ancak ve ancak yenilmezler tarafından durdurulabilir. Peki bölünmüş olan Kahramanlar bu durum için birleşebilecek ve bu büyük güç'ü engelleyebilecekler mi?

Yenilmezler: Sonsuzluk Savaşı (Avengers : Infinity War) Filmi İmdb'den 440.000 kişi tarafından oylandı ve 8,7 puan aldı. Bu film için editör puanı 9,0 olarak belirlendi. İyi Seyirler!


Teknik Detaylar
Kod :
General
Complete name                            : Avengers.Infinity.War.2018.BRRip.XviD.TR.Filmbol.avi
Format                                   : AVI
Format/Info                              : Audio Video Interleave
File size                                : 1.81 GiB
Duration                                 : 2 h 29 min
Overall bit rate                         : 1 739 kb/s

Video
ID                                       : 0
Format                                   : MPEG-4 Visual
Format profile                           : Simple@L5
Format settings, BVOP                    : No
Format settings, QPel                    : No
Format settings, GMC                     : No warppoints
Format settings, Matrix                  : Default (H.263)
Codec ID                                 : XVID
Codec ID/Hint                            : XviD
Duration                                 : 2 h 29 min
Bit rate                                 : 1 598 kb/s
Width                                    : 720 pixels
Height                                   : 302 pixels
Display aspect ratio                     : 2.40:1
Frame rate                               : 23.976 (23976/1000) FPS
Color space                              : YUV
Chroma subsampling                       : 4:2:0
Bit depth                                : 8 bits
Scan type                                : Progressive
Compression mode                         : Lossy
Bits/(Pixel*Frame)                       : 0.307
Stream size                              : 1.67 GiB (92%)
Writing library                          : Lavc57.107.100

Audio
ID                                       : 1
Format                                   : MPEG Audio
Format version                           : Version 1
Format profile                           : Layer 3
Format settings                          : Joint stereo / MS Stereo
Codec ID                                 : 55
Codec ID/Hint                            : MP3
Duration                                 : 2 h 29 min
Bit rate mode                            : Constant
Bit rate                                 : 128 kb/s
Channel(s)                               : 2 channels
Sampling rate                            : 48.0 kHz
Frame rate                               : 41.667 FPS (1152 SPF)
Compression mode                         : Lossy
Stream size                              : 137 MiB (7%)
Alignment                                : Aligned on interleaves
Interleave, duration                     : 24  ms (0.58 video frame)




Film Detayları


Yenilmezler Sonsuzluk Savasi

Yenilmezler Sonsuzluk Savasi

Yenilmezler Sonsuzluk Savasi

Yenilmezler Sonsuzluk Savasi

Yenilmezler Sonsuzluk Savasi


Film Fragmanı


Film Detayları

Brrip İndir


Mega ile indir

Uptobox ile indir

CloudRu ile indir

Şuan Offine!
Şuan Offine!
Rgun Yeni Üye
*
Üye

  • Konular0
  • Mesajlar1
  • Rep puanı 0
Güzel film
Şuan Offine!
Şuan Offine!
cemsav97 Süper Üye
***
Super Üye

  • Konular0
  • Mesajlar36
  • Rep puanı 0
10 numara
Şuan Offine!
Şuan Offine!
tayyib5731 Uzman Üye
**
Uzman Üye

  • Konular0
  • Mesajlar16
  • Rep puanı 0
güzel film
Şuan Offine!
Şuan Offine!
efegoztepe Yeni Üye
*
Üye

  • Konular0
  • Mesajlar2
  • Rep puanı 0
Süper
Şuan Offine!
Şuan Offine!
LNTBRFLMCN001 Uzman Üye
**
Uzman Üye

  • Konular0
  • Mesajlar10
  • Rep puanı 0
fenaaa
Şuan Offine!
Şuan Offine!
brtkcz21 Yeni Üye
*
Üye

  • Konular0
  • Mesajlar1
  • Rep puanı 0
Selamlar film güzeldi.
Şuan Offine!
Şuan Offine!
Ap0calypse Süper Üye
***
Super Üye

  • Konular0
  • Mesajlar39
  • Rep puanı 0
eline sağlık


Konu ile Alakalı Benzer Konular
Konular Yazar Yorumlar Okunma Son Yorum
Filmin Yayınlanma Tarihi: 2014
Lucy (2014) Türkçe Dublaj BRRip XviD İndir BroserBros 1 255 19-09-2020, Saat: 00:56
Son Yorum: sectechno
Filmin Yayınlanma Tarihi: 2020
The Hunt (Av) - 2020 - TR - BRRip XviD BroserBros 0 234 18-09-2020, Saat: 19:28
Son Yorum: BroserBros
Filmin Yayınlanma Tarihi: 2018
Gözbebeğim (Pupille) - 2018 - TR - BRRip XviD BroserBros 0 234 18-09-2020, Saat: 13:02
Son Yorum: BroserBros
Filmin Yayınlanma Tarihi: 2019
Umut Vadisi (Hope Gap) - 2019 - TR - BRRip XviD BroserBros 0 233 18-09-2020, Saat: 12:50
Son Yorum: BroserBros
Filmin Yayınlanma Tarihi: 2019
Cep Herkülü: Naim Süleymanoğlu (Cep Herkülü: Naim Süleymanoğlu) - 2019 - TR - BRRip XviD BroserBros 0 111 15-09-2020, Saat: 21:51
Son Yorum: BroserBros

Hızlı Menü: