Hoşgeldin, Ziyaretçi: Giriş Yap Üye Ol


stats
Adblock'u kapattıysanız tıklayın.
Hoşgeldiniz!
Filmbol'u tercih ettiğiniz için teşekkürler, ancak ablock kullanarak devam edemezsiniz.
Merak etmeyin. Heryerden ardı ardına çıkan reklamlar görmeyeceksiniz :)

Sadece site içi 1 reklam göreceksin ve bu site gezintini etkilemeyecek.
Konuyu Oyla:
  • Derecelendirme: 0/5 - 0 oy
  • 1
  • 2
  • 3
  • 4
  • 5
Title: Yeniden Başla (Demolition) Türkçe Dublaj m720P İndir
Gösterim Stili
#1
Filmin Yayınlanma Tarihi: 2016 

indirme türü


Bulut + Premium

vizyon tarihi


08 Nisan 2016

Boyutlar


0,84GB

diller


[TR]

altyazilar


Yok [Eklenebilir]

Video Format: Mkv


Matroska (.MKV)

Video Detay


MPEG-4, 949 Kbps, 0,66 GB

imdb puanı


7,0 / 10,0 / 55,000

süre


101 dakika

Ses Kodek: AC3


Audio Coding 3 (AC3)

Ses Detay


224 Kbps, 2 Kanal, 162 Mb

rarsifresi


filmbol.org

Editör Puanı


7,0

Genislik Yukseklik


1280x544

sürüm


x264 | 720P



Film Detayları

Eşini trafik kazasında trajik bir şekilde kaybeden yatırım uzmanı Davis Mitchell (Jake Gyllenhaal), duygusal bir çöküntü yaşamaktadır. Davis, tüm hayatını sorguladığı bu dönemde giderek kontrolünü kaybetmektedir. Bir gün parasını kaptırdığıbankamatiği üreten şirkete bir şikayet mektubu yazar. Davis, bu mektup sayesinde şirketin müşteri temsilcisi Karen (Naomi Watts) ile yakınlaşacak ve bu beklenmedik ilişki, hem Karen hem de Davis’in tekrar hayata sıkı sıkıya sarılmasını sağlayacaktır.

Oscar Ödüllü “Sınırsızlar Kulübü / Dallas Buyers Club”, “Yaban / Wild”  ve “Çılgın / C.R.A.Z.Y.” filmlerine imza atanJean-Marc Vallée’nin yönetmenliğinindeki filmde Naomi Watts, Chris Cooper, Heather Lind, Judah Lewis, Royce Johnson, Polly Draper ve Brendan Dooling görev alıyor.


Teknik Detaylar
Kod:
General
Format                                   : Matroska
Format version                           : Version 4 / Version 2
File size                                : 847 MiB
Duration                                 : 1h 40mn
Overall bit rate                         : 1 174 Kbps
Movie name                               : Demolotion - Filmbol.org

Video
ID                                       : 1
Format                                   : AVC
Format/Info                              : Advanced Video Codec
Format profile                           : High@L4.1
Format settings, CABAC                   : Yes
Format settings, ReFrames                : 5 frames
Codec ID                                 : V_MPEG4/ISO/AVC
Duration                                 : 1h 40mn
Bit rate                                 : 949 Kbps
Width                                    : 1 280 pixels
Height                                   : 544 pixels
Display aspect ratio                     : 2.35:1
Frame rate mode                          : Constant
Frame rate                               : 23.976 fps
Color space                              : YUV
Chroma subsampling                       : 4:2:0
Bit depth                                : 8 bits
Scan type                                : Progressive
Bits/(Pixel*Frame)                       : 0.057
Stream size                              : 669 MiB (79%)
Title                                    : 720P - Filmbol.org
Writing library                          : x264 core 148 r2638 7599210
Default                                  : Yes
Forced                                   : No
Color primaries                          : BT.709
Matrix coefficients                      : BT.709

Audio
ID                                       : 2
Format                                   : AC-3
Format/Info                              : Audio Coding 3
Mode extension                           : CM (complete main)
Format settings, Endianness              : Big
Codec ID                                 : A_AC3
Duration                                 : 1h 40mn
Bit rate mode                            : Constant
Bit rate                                 : 224 Kbps
Channel(s)                               : 2 channels
Channel positions                        : Front: L R
Sampling rate                            : 48.0 KHz
Bit depth                                : 16 bits
Compression mode                         : Lossy
Stream size                              : 162 MiB (19%)
Title                                    : Türkçe - Filmbol.org
Language                                 : Turkish
Default                                  : Yes
Forced                                   : No



Film Detayları


Demolition

Demolition

Demolition

Demolition

Demolition


Film Fragmanı


Film Detayları

Mini 720P İndir


Mega linki şuan da gizli. Kullanıma açmak için konuya yorum yapın ve ardından sayfayı yenileyin. Ayrıca bu linki açtığınızda reklamsız olarak erişebileceğinizi unutmayın.

Mega


Uptobox ile indir

CloudRu ile indir

 
Cevapla
  


Hızlı Menü:


Browsing: 1 Ziyaretçi