Filmbol Forum Film İndir FHD - FULL HD v Yelkenli Adında Bir Çocuk (A Boy Called Sailboat) - 2018 - TR+ENG - FHD
Moderatör Alımları Başladı! Başvuru yapmak için tıklayın.
Filmbol Premium'da %50'e varan indirim fırsatı!
Yelkenli Adında Bir Çocuk (A Boy Called Sailboat) - 2018 - TR+ENG - FHD
BroserBros
Yelkenli Adında Bir Çocuk (A Boy Called Sailboat) - 2018 - TR+ENG - FHD
0
175
  • Derecelendirme: 0/5 - 0 oy
  • 1
  • 2
  • 3
  • 4
  • 5
Konuyu Okuyanlar:1 Ziyaretçi
Şuan Offine!
Filmin Yayınlanma Tarihi: 2018 
Şuan Offine!
BroserBros Kurucu Admin
*******
Admin

Vizyon Tarihi


06 Mayıs 2019

imdb puanı


6,7 / 1,000

süre


92 dakika

Editör Puanı


6,2 / 10

Video Format: Mkv


Matroska (.MKV)

Ses Kodek: AC3


Audio Coding 3 (AC3)

sürüm


x264 | 1080P | WEB-DL

Boyutlar


1,58 GB



 Yelkenli Adında Bir Çocuk



İspanyada bir kasabada kuraklık baş göstermiştir ve en ufak bir yağmur belirtisi yoktur. Ardından bir erkek oğlan dünyaya gelir ve onu bir lütuf olarak görürler. Ardından bu çoçugun ismini de yelkenli (Sailboat) koyarlar. Sailboat aileye çok iyi gelecektir...

Yelkenli Adında Bir Çocuk (2018) (A Boy Called Sailboat) Filmi Imdb'den 1,000 kişi tarafından oylandı ve 6,7 puan aldı. Bu film için editör puanı 6,2 olarak belirlendi. İyi Seyirler!

Teknik Detaylar

Kod :
General
Unique ID                                : 224774640262682848044953700080546709073 (0xA91A056303786F88DF53A6BE2C6F7E51)
Complete name                            : /root/Desktop/2/Yelkenli.Adında.Bir.Çocuk.2018.1080p.WEB-DL.x264.TR.ENG.Filmbol.mkv
Format                                  : Matroska
Format version                          : Version 4 / Version 2
File size                                : 1.58 GiB
Duration                                : 1h 26mn
Overall bit rate                        : 2 621 Kbps
Movie name                              : Yelkenli Adında Bir Çocuk (2018) - Filmbol.org
Encoded date                            : UTC 2020-05-06 07:57:13
Writing application                      : mkvmerge v8.8.0 ('Wind at my back') 64bit
Writing library                          : libebml v1.3.3 + libmatroska v1.4.4

Video
ID                                      : 1
Format                                  : AVC
Format/Info                              : Advanced Video Codec
Format profile                          : Main@L4
Format settings, CABAC                  : Yes
Format settings, ReFrames                : 2 frames
Format settings, GOP                    : M=1, N=25
Codec ID                                : V_MPEG4/ISO/AVC
Duration                                : 1h 26mn
Bit rate                                : 2 234 Kbps
Width                                    : 1 916 pixels
Height                                  : 1 036 pixels
Display aspect ratio                    : 1.85:1
Frame rate mode                          : Constant
Frame rate                              : 23.976 (24000/1001) fps
Color space                              : YUV
Chroma subsampling                      : 4:2:0
Bit depth                                : 8 bits
Scan type                                : Progressive
Bits/(Pixel*Frame)                      : 0.047
Stream size                              : 1.35 GiB (85%)
Title                                    : Filmbol.org
Language                                : English
Default                                  : Yes
Forced                                  : No

Audio #1
ID                                      : 2
Format                                  : AC-3
Format/Info                              : Audio Coding 3
Mode extension                          : CM (complete main)
Format settings, Endianness              : Big
Codec ID                                : A_AC3
Duration                                : 1h 26mn
Bit rate mode                            : Constant
Bit rate                                : 192 Kbps
Channel(s)                              : 2 channels
Channel positions                        : Front: L R
Sampling rate                            : 48.0 KHz
Frame rate                              : 31.250 fps (1536 spf)
Compression mode                        : Lossy
Stream size                              : 119 MiB (7%)
Title                                    : Filmbol.org
Language                                : Turkish
Default                                  : Yes
Forced                                  : No

Audio #2
ID                                      : 3
Format                                  : AC-3
Format/Info                              : Audio Coding 3
Mode extension                          : CM (complete main)
Format settings, Endianness              : Big
Codec ID                                : A_AC3
Duration                                : 1h 26mn
Bit rate mode                            : Constant
Bit rate                                : 192 Kbps
Channel(s)                              : 2 channels
Channel positions                        : Front: L R
Sampling rate                            : 48.0 KHz
Frame rate                              : 31.250 fps (1536 spf)
Compression mode                        : Lossy
Stream size                              : 119 MiB (7%)
Title                                    : Filmbol.org
Language                                : English
Default                                  : No
Forced                                  : No

Film Detayları


 Yelkenli Adında Bir Çocuk

 Yelkenli Adında Bir Çocuk

 Yelkenli Adında Bir Çocuk


Film Fragmanı


Film Detayları

Uptobox ile indir

1Fichier ile indir

1Fichier'den İndiremiyor musun? Tıklayın!


Mega ile indir

Bunun için üzgünüz ancak, bu linke sadece premium üyeler erişebilir.

Filmbol Cloud



Konu ile Alakalı Benzer Konular
Konular Yazar Yorumlar Okunma Son Yorum
Filmin Yayınlanma Tarihi: 2018
Fast Color: Gücünü Serbest Bırak (Fast Color) - 2018 - TR+ORG - FHD - x264 BroserBros 0 480 03-10-2020, Saat: 16:47
Son Yorum: BroserBros
Filmin Yayınlanma Tarihi: 2018
Gözbebeğim (Pupille) - 2018 - TR+ORG - FHD - x264 BroserBros 0 371 18-09-2020, Saat: 13:03
Son Yorum: BroserBros
Filmin Yayınlanma Tarihi: 2018
Ölüm Düğümü (The Clovehitch Killer) - 2018 - TR+ORG - FHD - x264 BroserBros 0 159 07-08-2020, Saat: 19:19
Son Yorum: BroserBros
Filmin Yayınlanma Tarihi: 2018
Gölge Savaşçı (Shadow - Ying) - 2018 - TR+ORG - FHD - x264 BroserBros 0 102 26-07-2020, Saat: 12:57
Son Yorum: BroserBros
Filmin Yayınlanma Tarihi: 2020
Lanetli Çocuk 2 (Brahms: The Boy II) - 2020 - TR+ORG - FHD - x265 BroserBros 0 63 25-07-2020, Saat: 20:08
Son Yorum: BroserBros

Hızlı Menü: