Filmbol Forum Film İndir 1080P v Yedek Kulubesi 2 (Benchwarmers 2: Breaking Balls) Türkçe Dublaj BLURAY 1080P İndir
Mega linklerinin şikayet edilmemesi için global erişime kapatıp sadece yorum yapanlara açıyoruz. Bu linkleri gizleme işlemini mecburen yapıyoruz ve yorum yapmanızın siteye değil size faydası vardır. Teşekürler yazmayı çok görüp, Random/Spam mesajlar atarak Mega linklerini açmaya çalışan kullanıcılara önce süresiz ban, devam ederse IP ban atacağız.
Filmbol'da moderatör olmak ister misiniz? Bizimle iletişime geçmek için tıklayın!
Yedek Kulubesi 2 (Benchwarmers 2: Breaking Balls) Türkçe Dublaj BLURAY 1080P İndir
BroserBros
Yedek Kulubesi 2 (Benchwarmers 2: Breaking Balls) Türkçe Dublaj BLURAY 1080P İndir
0
233
  • Derecelendirme: 0/5 - 0 oy
  • 1
  • 2
  • 3
  • 4
  • 5
Konuyu Okuyanlar:1 Ziyaretçi
Şuan Online!
Filmin Yayınlanma Tarihi: 2019 
WWW
Şuan Online!
BroserBros Kurucu Admin
*******
Admin








 Yedek Kulubesi 2



Çılgın kötü bir kaza, bir adamın profesyonel beyzbol kariyerini bozduktan sonra, avukatlar ile rekabetçi bir voleybol ligine katılır.

Yedek Kulubesi 2 (2019) (Benchwarmers 2: Breaking Balls) Filmi Imdb'den 500 kişi tarafından oylandı ve 3,9 puan aldı. Bu film için editör puanı 5,0 olarak belirlendi. İyi Seyirler!

Teknik Detaylar

Kod :
General
Unique ID                                : 173262388215596922261822348186903119895 (0x82591F468941F21FE8A6BE95CB400817)
Complete name                            : /root/Desktop/2/Yedek.Kulubesi.2.2019.1080p.NF.WEB-DL.x264.TR.Filmbol.mkv
Format                                   : Matroska
Format version                           : Version 4 / Version 2
File size                                : 1.47 GiB
Duration                                 : 1h 30mn
Overall bit rate                         : 2 322 Kbps
Movie name                               : Yedek Kulubesi (2019) - Filmbol.org
Encoded date                             : UTC 2020-01-24 09:47:06
Writing application                      : mkvmerge v35.0.0 ('All The Love In The World') 64-bit
Writing library                          : libebml v1.3.9 + libmatroska v1.5.2

Video
ID                                       : 1
Format                                   : AVC
Format/Info                              : Advanced Video Codec
Format profile                           : [email protected]
Format settings, CABAC                   : Yes
Format settings, ReFrames                : 2 frames
Codec ID                                 : V_MPEG4/ISO/AVC
Duration                                 : 1h 30mn
Bit rate                                 : 2 128 Kbps
Width                                    : 1 920 pixels
Height                                   : 1 080 pixels
Display aspect ratio                     : 16:9
Frame rate mode                          : Constant
Frame rate                               : 23.976 (24000/1001) fps
Color space                              : YUV
Chroma subsampling                       : 4:2:0
Bit depth                                : 8 bits
Scan type                                : Progressive
Bits/(Pixel*Frame)                       : 0.043
Stream size                              : 1.34 GiB (92%)
Title                                    : 1080P - Filmbol.org
Language                                 : English
Default                                  : Yes
Forced                                   : No

Audio
ID                                       : 2
Format                                   : AC-3
Format/Info                              : Audio Coding 3
Mode extension                           : CM (complete main)
Format settings, Endianness              : Big
Codec ID                                 : A_AC3
Duration                                 : 1h 30mn
Bit rate mode                            : Constant
Bit rate                                 : 192 Kbps
Channel(s)                               : 2 channels
Channel positions                        : Front: L R
Sampling rate                            : 48.0 KHz
Frame rate                               : 31.250 fps (1536 spf)
Compression mode                         : Lossy
Stream size                              : 124 MiB (8%)
Title                                    : Türkçe - Filmbol.org
Language                                 : Turkish
Default                                  : Yes
Forced                                   : No

Film Detayları


 Yedek Kulubesi 2

 Yedek Kulubesi 2

 Yedek Kulubesi 2

[/fragman]

Film Detayları

Mini 1080P İndir

Uptobox ile indir

1Fichier ile indir

1Fichier'den İndiremiyor musun? Tıklayın!


Mega linki şuan da gizli. Kullanıma açmak için konuya yorum yapın ve ardından sayfayı yenileyin.

Mega


MediaFire ile indir



Konu ile Alakalı Benzer Konular
Konular Yazar Yorumlar Okunma Son Yorum
Filmin Yayınlanma Tarihi: 2016
The Nice Guys: İyi Adamlar (2016) Türkçe Dublaj 1080P İndir BroserBros 4 1,315 4 saat önce
Son Yorum: ANDREMEDAN
Filmin Yayınlanma Tarihi: 2014
Madagaskar Penguenleri (Penguins of Madagascar) Türkçe Dublaj BLURAY 1080P İndir BroserBros 3 710 7 saat önce
Son Yorum: Omertrans505
Filmin Yayınlanma Tarihi: 2020
Her Zaman Şeytan (The Devil All the Time) - 2020 - TR+ORG - 1080P | tt7395114 TheSteeL 0 15 8 saat önce
Son Yorum: TheSteeL
Filmin Yayınlanma Tarihi: 2020
Baba Aranıyor (Se busca papá) - 2020 - TR+ORG - 1080P | tt12721188 TheSteeL 0 17 8 saat önce
Son Yorum: TheSteeL
Filmin Yayınlanma Tarihi: 2019
Beyaz Kentin Sessizliği (El silencio de la ciudad blanca) - 2019 - TR+ORG - 1080P | tt8393332 BroserBros 1 254 , Saat: 15:38
Son Yorum: BroserBros

Hızlı Menü: