Filmbol Forum Film İndir UHD - ULTRA HD - 4K v Yarının Sınırında (Edge of Tomorrow) - 2014 - TR+ORG - UHD (4K) - 10Bit-x265
Moderatör Alımları Başladı! Başvuru yapmak için tıklayın.
Filmbol Premium'da %50'e varan indirim fırsatı!
Yarının Sınırında (Edge of Tomorrow) - 2014 - TR+ORG - UHD (4K) - 10Bit-x265
BroserBros
Yarının Sınırında (Edge of Tomorrow) - 2014 - TR+ORG - UHD (4K) - 10Bit-x265
0
144
  • Derecelendirme: 0/5 - 0 oy
  • 1
  • 2
  • 3
  • 4
  • 5
Konuyu Okuyanlar:1 Ziyaretçi
Şuan Online!
Filmin Yayınlanma Tarihi: 2014 
Şuan Online!
BroserBros Kurucu Admin
*******
Admin

Vizyon Tarihi


06 Haziran 2014

imdb puanı


7,9 / 580,000

süre


113 dakika

Editör Puanı


8,5 / 10

Video Format: Mkv


Matroska (.MKV)

Ses Kodek: AC3


Audio Coding 3 (AC3)

sürüm


x265 | 4K | x265 10Bit

Boyutlar


8,01 GB



 Yarının Sınırında



Yakın gelecekte dünyayı ele geçiren Mimics adlı uzaylı birliği, birçok büyük şehri yok eder ve milyonlarca insanı ölümün eşiğinde bekletir. Dünyada hiçbir ordu, onların hızına, silahlarının gücüne ve de en önemlisi telepati yoluyla emir verme ve uygulama güçlerine ulaşamaz. Artık dünyadaki tüm ordular bu uzaylı sürüsüne karşı güçlerini birleştirmek durumundadır ve bu güç birliği dışında ikinci bir şansları yoktur. Subay Bill Cage daha önce bu savaşlardan hiçbirine katılmamış tecrübesiz bir askerdir ve atıldığı yeni görevi onun için bir nevi intihar anlamına gelmektedir. Beklenen olur; Cage dakikalar içerisinde öldürülür... Fakat bu bir sonu değil, yeni bir başlangıcı doğurur. Cage, sıradışı bir şekilde cehennem gibi bir günde uyanır, kendini kırılması zor bir döngünün içerisinde bulur. Buna göre her seferinde ölüp sonrasında yeniden dirilip aynı savaşı bir kez daha tekrarlamak zorundadır. Her geri dönüşünde daha güçlü, daha zeki ve Mimics'lerle daha kolay başa çıkabilir hale gelse de kendine verilen iş dünyanın en zorlu görevidir.

Yarının Sınırında (2014) (Edge of Tomorrow) Filmi Imdb'den 580,000 kişi tarafından oylandı ve 7,9 puan aldı. Bu film için editör puanı 8,5 olarak belirlendi. İyi Seyirler!

Teknik Detaylar

Kod :
General
Unique ID                                : 39643701485971920054846789031566530473 (0x1DD31963D93BA05551B20BD5135057A9)
Complete name                            : /root/Desktop/m18lsmsrbls/Yarının.Sınırında.2014.4K.UHD.HDR.BluRay.x265.10Bit.TR.ENG.Filmbol.mkv
Format                                  : Matroska
Format version                          : Version 4 / Version 2
File size                                : 8.02 GiB
Duration                                : 1h 53mn
Overall bit rate                        : 10.1 Mbps
Movie name                              : Yarının Sınırında - Edge of Tomorrow - 2014 | Filmbol.org
Encoded date                            : UTC 2020-06-03 11:39:33
Writing application                      : mkvmerge v8.8.0 ('Wind at my back') 64bit
Writing library                          : libebml v1.3.3 + libmatroska v1.4.4

Video
ID                                      : 1
Format                                  : HEVC
Format/Info                              : High Efficiency Video Coding
Format profile                          : Main 10@L5.1@High
Codec ID                                : V_MPEGH/ISO/HEVC
Duration                                : 1h 53mn
Bit rate                                : 4 612 Kbps
Width                                    : 3 840 pixels
Height                                  : 1 600 pixels
Display aspect ratio                    : 2.40:1
Frame rate mode                          : Constant
Frame rate                              : 23.976 (24000/1001) fps
Color space                              : YUV
Chroma subsampling                      : 4:2:0
Bit depth                                : 10 bits
Bits/(Pixel*Frame)                      : 0.031
Stream size                              : 3.66 GiB (46%)
Title                                    : 4K - Filmbol.org
Writing library                          : x265 2.9+2-7e978ed93d60:[Windows][GCC 8.2.0][64 bit] 10bit
Encoding settings                        : cpuid=1111039 / frame-threads=4 / numa-pools=14,14 / wpp / pmode / no-pme / no-psnr / no-ssim / log-level=2 / input-csp=1 / input-res=3840x1600 / interlace=0 / total-frames=163224 / level-idc=51 / high-tier=1 / uhd-bd=0 / ref=1 / no-allow-non-conformance / repeat-headers / annexb / no-aud / no-hrd / info / hash=0 / no-temporal-layers / open-gop / min-keyint=23 / keyint=240 / gop-lookahead=0 / bframes=3 / b-adapt=0 / b-pyramid / bframe-bias=0 / rc-lookahead=5 / lookahead-slices=8 / scenecut=0 / radl=0 / no-intra-refresh / ctu=32 / min-cu-size=16 / no-rect / no-amp / max-tu-size=32 / tu-inter-depth=1 / tu-intra-depth=1 / limit-tu=0 / rdoq-level=0 / dynamic-rd=0.00 / no-ssim-rd / no-signhide / no-tskip / nr-intra=0 / nr-inter=0 / no-constrained-intra / no-strong-intra-smoothing / max-merge=2 / limit-refs=0 / no-limit-modes / me=2 / subme=5 / merange=57 / temporal-mvp / no-weightp / no-weightb / no-analyze-src-pics / deblock=0:0 / no-sao / no-sao-non-deblock / rd=2 / early-skip / rskip / fast-intra / no-tskip-fast / no-cu-lossless / no-b-intra / no-splitrd-skip / rdpenalty=0 / psy-rd=2.00 / psy-rdoq=0.00 / no-rd-refine / no-lossless / cbqpoffs=0 / crqpoffs=0 / rc=crf / crf=18.0 / qcomp=0.60 / qpstep=4 / stats-write=0 / stats-read=0 / vbv-maxrate=160000 / vbv-bufsize=160000 / vbv-init=0.9 / crf-max=0.0 / crf-min=0.0 / ipratio=1.40 / pbratio=1.30 / aq-mode=1 / aq-strength=0.00 / cutree / zone-count=0 / no-strict-cbr / qg-size=32 / no-rc-grain / qpmax=69 / qpmin=0 / no-const-vbv / sar=0 / overscan=0 / videoformat=5 / range=0 / colorprim=9 / transfer=16 / colormatrix=9 / chromaloc=0 / display-window=0 / master-display=G(13250,34500)B(7500,3000)R(34000,16000)WP(15635,16450)L(10000000,50) / max-cll=0,0 / min-luma=0 / max-luma=1023 / log2-max-poc-lsb=8 / vui-timing-info / vui-hrd-info / slices=1 / no-opt-qp-pps / no-opt-ref-list-length-pps / no-multi-pass-opt-rps / scenecut-bias=0.05 / no-opt-cu-delta-qp / no-aq-motion / hdr / no-hdr-opt / no-dhdr10-opt / no-idr-recovery-sei / analysis-reuse-level=5 / scale-factor=0 / refine-intra=0 / refine-inter=0 / refine-mv=0 / no-limit-sao / ctu-info=0 / no-lowpass-dct / refine-mv-type=0 / copy-pic=1 / max-ausize-factor=1.0 / no-dynamic-refine / no-single-sei
Language                                : English
Default                                  : Yes
Forced                                  : No
Color range                              : Limited
Color primaries                          : BT.2020
Matrix coefficients                      : BT.2020 non-constant

Audio #1
ID                                      : 2
Format                                  : AC-3
Format/Info                              : Audio Coding 3
Mode extension                          : CM (complete main)
Format settings, Endianness              : Big
Codec ID                                : A_AC3
Duration                                : 1h 53mn
Bit rate mode                            : Constant
Bit rate                                : 192 Kbps
Channel(s)                              : 2 channels
Channel positions                        : Front: L R
Sampling rate                            : 48.0 KHz
Frame rate                              : 31.250 fps (1536 spf)
Compression mode                        : Lossy
Stream size                              : 156 MiB (2%)
Title                                    : Türkçe - Filmbol.org
Default                                  : No
Forced                                  : No

Audio #2
ID                                      : 3
Format                                  : DTS
Format/Info                              : Digital Theater Systems
Format profile                          : MA / Core
Mode                                    : 16
Format settings, Endianness              : Big
Codec ID                                : A_DTS
Duration                                : 1h 53mn
Bit rate mode                            : Variable / Constant
Bit rate                                : 5 208 Kbps / 1 509 Kbps
Channel(s)                              : 8 channels / 6 channels
Channel positions                        : Front: L C R, Side: L R, Back: L R, LFE / Front: L C R, Side: L R, LFE
Sampling rate                            : 48.0 KHz
Frame rate                              : 93.750 fps (512 spf)
Bit depth                                : 24 bits
Compression mode                        : Lossless / Lossy
Delay relative to video                  : 10ms
Stream size                              : 4.13 GiB (51%)
Title                                    : İngilizce - Filmbol.org
Language                                : English
Default                                  : Yes
Forced                                  : No

Audio #3
ID                                      : 4
Format                                  : AAC
Format/Info                              : Advanced Audio Codec
Format profile                          : LC
Codec ID                                : A_AAC
Duration                                : 1h 53mn
Bit rate                                : 93.8 Kbps
Channel(s)                              : 2 channels
Channel positions                        : Front: L R
Sampling rate                            : 48.0 KHz
Frame rate                              : 46.875 fps (1024 spf)
Compression mode                        : Lossy
Stream size                              : 76.1 MiB (1%)
Title                                    : İngilizce - Filmbol.org
Language                                : English
Default                                  : No
Forced                                  : No

Text #1
ID                                      : 5
Format                                  : UTF-8
Codec ID                                : S_TEXT/UTF8
Codec ID/Info                            : UTF-8 Plain Text
Duration                                : 1h 45mn
Bit rate                                : 53 bps
Count of elements                        : 1057
Stream size                              : 41.1 KiB (0%)
Title                                    : Türkçe Altyazı
Language                                : Turkish
Default                                  : Yes
Forced                                  : No

Text #2
ID                                      : 6
Format                                  : PGS
Muxing mode                              : zlib
Codec ID                                : S_HDMV/PGS
Codec ID/Info                            : Picture based subtitle format used on BDs/HD-DVDs
Duration                                : 1h 53mn
Bit rate                                : 13.9 Kbps
Count of elements                        : 3026
Stream size                              : 11.2 MiB (0%)
Language                                : English
Default                                  : No
Forced                                  : No

Film Detayları


 Yarının Sınırında

 Yarının Sınırında

 Yarının Sınırında


Film Fragmanı


Film Detayları

Uptobox ile indir

1Fichier ile indir

1Fichier'den İndiremiyor musun? Tıklayın!


Mega ile indir

Bunun için üzgünüz ancak, bu linke sadece premium üyeler erişebilir.

Filmbol Cloud



Konu ile Alakalı Benzer Konular
Konular Yazar Yorumlar Okunma Son Yorum
Filmin Yayınlanma Tarihi: 2020
Vahşetin Çağrısı (The Call of the Wild) - 2020 - TR+ORG - UHD (4K) - 10Bit-x265 BroserBros 0 230 05-08-2020, Saat: 20:47
Son Yorum: BroserBros
Filmin Yayınlanma Tarihi: 2018
Gölge Savaşçı (Shadow - Ying) - 2018 - TR+ORG - UHD (4K) - 10Bit-x265 BroserBros 0 111 26-07-2020, Saat: 12:57
Son Yorum: BroserBros
Filmin Yayınlanma Tarihi: 2020
Lanetli Çocuk 2 (Brahms: The Boy II) - 2020 - TR+ORG - UHD (4K) - 10Bit-x265 BroserBros 0 57 25-07-2020, Saat: 20:11
Son Yorum: BroserBros
Filmin Yayınlanma Tarihi: 2019
Hustlers (Hustlers) - 2019 - TR+ORG - UHD (4K) - 10Bit-x265 BroserBros 0 99 10-07-2020, Saat: 22:31
Son Yorum: BroserBros
Filmin Yayınlanma Tarihi: 2019
Hellboy (Hellboy) - 2019 - TR+ORG - UHD (4K) - 10Bit-x265 BroserBros 0 136 03-07-2020, Saat: 12:40
Son Yorum: BroserBros

Hızlı Menü: