Filmbol Forum Film İndir BRRip XviD v Yarının Sınırında (Edge of Tomorrow) - 2014 - TR - BRRip XviD
Moderatör Alımları Başladı! Başvuru yapmak için tıklayın.
Filmbol Premium'da %50'e varan indirim fırsatı!
Yarının Sınırında (Edge of Tomorrow) - 2014 - TR - BRRip XviD
BroserBros
Yarının Sınırında (Edge of Tomorrow) - 2014 - TR - BRRip XviD
0
126
  • Derecelendirme: 0/5 - 0 oy
  • 1
  • 2
  • 3
  • 4
  • 5
Konuyu Okuyanlar:1 Ziyaretçi
Şuan Online!
Filmin Yayınlanma Tarihi: 2014 
Şuan Online!
BroserBros Kurucu Admin
*******
Admin

Vizyon Tarihi


06 Haziran 2014

imdb puanı


7,9 / 580,000

süre


113 dakika

Editör Puanı


8,5 / 10

Video Format: Avi


Audio Video Interleave (.AVI)

Ses Kodek: MP3


MPEG-1 Audio Layer III (MP3)

sürüm


h263 | BDRip XviD

Boyutlar


1,36 GB



 Yarının Sınırında



Yakın gelecekte dünyayı ele geçiren Mimics adlı uzaylı birliği, birçok büyük şehri yok eder ve milyonlarca insanı ölümün eşiğinde bekletir. Dünyada hiçbir ordu, onların hızına, silahlarının gücüne ve de en önemlisi telepati yoluyla emir verme ve uygulama güçlerine ulaşamaz. Artık dünyadaki tüm ordular bu uzaylı sürüsüne karşı güçlerini birleştirmek durumundadır ve bu güç birliği dışında ikinci bir şansları yoktur. Subay Bill Cage daha önce bu savaşlardan hiçbirine katılmamış tecrübesiz bir askerdir ve atıldığı yeni görevi onun için bir nevi intihar anlamına gelmektedir. Beklenen olur; Cage dakikalar içerisinde öldürülür... Fakat bu bir sonu değil, yeni bir başlangıcı doğurur. Cage, sıradışı bir şekilde cehennem gibi bir günde uyanır, kendini kırılması zor bir döngünün içerisinde bulur. Buna göre her seferinde ölüp sonrasında yeniden dirilip aynı savaşı bir kez daha tekrarlamak zorundadır. Her geri dönüşünde daha güçlü, daha zeki ve Mimics'lerle daha kolay başa çıkabilir hale gelse de kendine verilen iş dünyanın en zorlu görevidir.

Yarının Sınırında (2014) (Edge of Tomorrow) Filmi Imdb'den 580,000 kişi tarafından oylandı ve 7,9 puan aldı. Bu film için editör puanı 8,5 olarak belirlendi. İyi Seyirler!

Teknik Detaylar

Kod :
General
Complete name                            : /root/Desktop/m18lsmsrbls/Yarının.Sınırında.2014.BDRip.XviD.TR.Filmbol.avi
Format                                  : AVI
Format/Info                              : Audio Video Interleave
Format profile                          : OpenDML
Format settings                          : rec
File size                                : 1.36 GiB
Duration                                : 1h 53mn
Overall bit rate                        : 1 721 Kbps
Writing application                      : AVI-Mux GUI 1.17.8.3, Feb 16 201019:42:50

Video
ID                                      : 0
Format                                  : MPEG-4 Visual
Format profile                          : Advanced Simple@L5
Format settings, BVOP                    : 2
Format settings, QPel                    : No
Format settings, GMC                    : No warppoints
Format settings, Matrix                  : Default (H.263)
Codec ID                                : XVID
Codec ID/Hint                            : XviD
Duration                                : 1h 53mn
Bit rate                                : 1 589 Kbps
Width                                    : 656 pixels
Height                                  : 272 pixels
Display aspect ratio                    : 2.40:1
Frame rate                              : 23.976 (24000/1001) fps
Color space                              : YUV
Chroma subsampling                      : 4:2:0
Bit depth                                : 8 bits
Scan type                                : Progressive
Compression mode                        : Lossy
Bits/(Pixel*Frame)                      : 0.371
Stream size                              : 1.26 GiB (92%)
Writing library                          : XviD 1.2.1 (UTC 2008-12-04)

Audio
ID                                      : 1
Format                                  : MPEG Audio
Format version                          : Version 1
Format profile                          : Layer 3
Mode                                    : Joint stereo
Mode extension                          : MS Stereo
Codec ID                                : 55
Codec ID/Hint                            : MP3
Duration                                : 1h 53mn
Bit rate mode                            : Constant
Bit rate                                : 128 Kbps
Channel(s)                              : 2 channels
Sampling rate                            : 48.0 KHz
Compression mode                        : Lossy
Stream size                              : 104 MiB (7%)
Alignment                                : Aligned on interleaves
Interleave, duration                    : 512 ms (12.27 video frames)
Interleave, preload duration            : 216 ms
Title                                    : Edge.of.Tomorrow.2014.TR
Writing library                          : LAME3.99r
Encoding settings                        : -m j -V 4 -q 2 -lowpass 17 -b 128

Film Detayları


 Yarının Sınırında

 Yarının Sınırında

 Yarının Sınırında


Film Fragmanı


Film Detayları


Uptobox ile indir

1Fichier ile indir

1Fichier'den İndiremiyor musun? Tıklayın!


Mega ile indir

Bunun için üzgünüz ancak, bu linke sadece premium üyeler erişebilir.

Filmbol Cloud



Konu ile Alakalı Benzer Konular
Konular Yazar Yorumlar Okunma Son Yorum
Filmin Yayınlanma Tarihi: 2014
Lucy (2014) Türkçe Dublaj BRRip XviD İndir BroserBros 1 262 19-09-2020, Saat: 00:56
Son Yorum: sectechno
Filmin Yayınlanma Tarihi: 2020
The Hunt (Av) - 2020 - TR - BRRip XviD BroserBros 0 316 18-09-2020, Saat: 19:28
Son Yorum: BroserBros
Filmin Yayınlanma Tarihi: 2018
Gözbebeğim (Pupille) - 2018 - TR - BRRip XviD BroserBros 0 315 18-09-2020, Saat: 13:02
Son Yorum: BroserBros
Filmin Yayınlanma Tarihi: 2019
Umut Vadisi (Hope Gap) - 2019 - TR - BRRip XviD BroserBros 0 316 18-09-2020, Saat: 12:50
Son Yorum: BroserBros
Filmin Yayınlanma Tarihi: 2019
Cep Herkülü: Naim Süleymanoğlu (Cep Herkülü: Naim Süleymanoğlu) - 2019 - TR - BRRip XviD BroserBros 0 114 15-09-2020, Saat: 21:51
Son Yorum: BroserBros

Hızlı Menü: