Filmbol Forum Film İndir FHD - FULL HD v Yanlış Missy (The Wrong Missy) - 2020 - TR+ORG - FHD
Moderatör Alımları Başladı! Başvuru yapmak için tıklayın.
Filmbol Premium'da %50'e varan indirim fırsatı!
Yanlış Missy (The Wrong Missy) - 2020 - TR+ORG - FHD
BroserBros
Yanlış Missy (The Wrong Missy) - 2020 - TR+ORG - FHD
0
124
  • Derecelendirme: 0/5 - 0 oy
  • 1
  • 2
  • 3
  • 4
  • 5
Konuyu Okuyanlar:1 Ziyaretçi
Şuan Offine!
Filmin Yayınlanma Tarihi: 2020 
Şuan Offine!
BroserBros Kurucu Admin
*******
Admin

Vizyon Tarihi


13 Mayıs 2020

imdb puanı


5,7 / 4,000

süre


90 dakika

Editör Puanı


5,9 / 10

Video Format: Mkv


Matroska (.MKV)

Ses Kodek: AC3


Audio Coding 3 (AC3)

sürüm


x264 | FULL HD | WEB-DL

Boyutlar


1,65 GB



 Yanlış Missy



Tim Morris uzunca bir sürenin ardından aradığı kadını bulduğunu düşünür ancak birlikte vakit geçirmelerinin gerektiğini düşündüğü için Missy'i şirketinin düzenlediği bir eğlence partisi ve geziye davet eder. İşler şimdilik yolunda görünse de, aslında daveti yanlış kişiye yolladığı için birazcık karışacaktır..

Yanlış Missy (2020) (The Wrong Missy) Filmi Imdb'den 4,000 kişi tarafından oylandı ve 5,7 puan aldı. Bu film için editör puanı 5,9 olarak belirlendi. İyi Seyirler!

Teknik Detaylar

Kod :
General
Unique ID                                : 113494648555136451499173402347580945846 (0x5562463326B05E0712154EE12E93F5B6)
Complete name                            : /root/Desktop/3/Yanlış.Missy.2020.1080p.WEB-DL.x264.TR.ENG.Filmbol.mkv
Format                                  : Matroska
Format version                          : Version 4 / Version 2
File size                                : 1.65 GiB
Duration                                : 1h 30mn
Overall bit rate                        : 2 626 Kbps
Movie name                              : Yanlış Missy - The Wrong Missy - 2020 | Filmbol.org
Encoded date                            : UTC 2020-05-15 11:18:29
Writing application                      : mkvmerge v8.8.0 ('Wind at my back') 64bit
Writing library                          : libebml v1.3.3 + libmatroska v1.4.4

Video
ID                                      : 1
Format                                  : AVC
Format/Info                              : Advanced Video Codec
Format profile                          : Main@L4
Format settings, CABAC                  : Yes
Format settings, ReFrames                : 2 frames
Codec ID                                : V_MPEG4/ISO/AVC
Duration                                : 1h 30mn
Bit rate                                : 2 047 Kbps
Width                                    : 1 920 pixels
Height                                  : 1 080 pixels
Display aspect ratio                    : 16:9
Frame rate mode                          : Constant
Frame rate                              : 24.000 fps
Color space                              : YUV
Chroma subsampling                      : 4:2:0
Bit depth                                : 8 bits
Scan type                                : Progressive
Bits/(Pixel*Frame)                      : 0.041
Stream size                              : 1.29 GiB (78%)
Title                                    : Filmbol.org
Default                                  : Yes
Forced                                  : No

Audio #1
ID                                      : 2
Format                                  : AC-3
Format/Info                              : Audio Coding 3
Mode extension                          : CM (complete main)
Format settings, Endianness              : Big
Codec ID                                : A_AC3
Duration                                : 1h 30mn
Bit rate mode                            : Constant
Bit rate                                : 384 Kbps
Channel(s)                              : 6 channels
Channel positions                        : Front: L C R, Side: L R, LFE
Sampling rate                            : 48.0 KHz
Frame rate                              : 31.250 fps (1536 spf)
Compression mode                        : Lossy
Stream size                              : 247 MiB (15%)
Title                                    : Filmbol.org
Language                                : Turkish
Default                                  : Yes
Forced                                  : No

Audio #2
ID                                      : 3
Format                                  : AC-3
Format/Info                              : Audio Coding 3
Mode extension                          : CM (complete main)
Format settings, Endianness              : Big
Codec ID                                : A_AC3
Duration                                : 1h 30mn
Bit rate mode                            : Constant
Bit rate                                : 192 Kbps
Channel(s)                              : 2 channels
Channel positions                        : Front: L R
Sampling rate                            : 48.0 KHz
Frame rate                              : 31.250 fps (1536 spf)
Compression mode                        : Lossy
Stream size                              : 124 MiB (7%)
Title                                    : Filmbol.org
Language                                : English
Default                                  : No
Forced                                  : No

Text #1
ID                                      : 4
Format                                  : UTF-8
Codec ID                                : S_TEXT/UTF8
Codec ID/Info                            : UTF-8 Plain Text
Duration                                : 1h 29mn
Bit rate                                : 2 bps
Count of elements                        : 47
Stream size                              : 1.46 KiB (0%)
Title                                    : Filmbol.org
Language                                : Turkish
Default                                  : Yes
Forced                                  : Yes

Text #2
ID                                      : 5
Format                                  : UTF-8
Codec ID                                : S_TEXT/UTF8
Codec ID/Info                            : UTF-8 Plain Text
Duration                                : 1h 29mn
Bit rate                                : 73 bps
Count of elements                        : 1571
Stream size                              : 48.0 KiB (0%)
Title                                    : Filmbol.org
Language                                : Turkish
Default                                  : No
Forced                                  : No

Film Detayları


 Yanlış Missy

 Yanlış Missy

 Yanlış Missy


Film Fragmanı


Film Detayları

Uptobox ile indir

1Fichier ile indir

1Fichier'den İndiremiyor musun? Tıklayın!


Mega ile indir

Bunun için üzgünüz ancak, bu linke sadece premium üyeler erişebilir.

Filmbol Cloud



Konu ile Alakalı Benzer Konular
Konular Yazar Yorumlar Okunma Son Yorum
Filmin Yayınlanma Tarihi: 2020
The Hunt (Av) - 2020 - TR+ORG - FHD - x264 BroserBros 0 222 18-09-2020, Saat: 19:29
Son Yorum: BroserBros
Filmin Yayınlanma Tarihi: 2020
Berlin, Berlin (Berlin, Berlin) - 2020 - TR+ORG - FHD - x264 BroserBros 0 91 15-09-2020, Saat: 18:18
Son Yorum: BroserBros
Filmin Yayınlanma Tarihi: 2020
Malibu Rescue: Yeni Dalga (Malibu Rescue: The Next Wave) - 2020 - TR+ORG - FHD - x264 BroserBros 0 134 13-09-2020, Saat: 20:55
Son Yorum: BroserBros
Filmin Yayınlanma Tarihi: 2020
Work It (Work It) - 2020 - TR+ORG - FHD - x264 BroserBros 0 261 22-08-2020, Saat: 20:23
Son Yorum: BroserBros
Filmin Yayınlanma Tarihi: 2020
The Hater (Sala samobójców. Hejter) - 2020 - TR+ORG - FHD - x264 BroserBros 0 251 22-08-2020, Saat: 20:13
Son Yorum: BroserBros

Hızlı Menü: