Filmbol Forum Film İndir BRRip XviD v Yakalandın! (Tag) Türkçe Dublaj BRRip XviD İndir
Mega linklerinin şikayet edilmemesi için global erişime kapatıp sadece yorum yapanlara açıyoruz. Bu linkleri gizleme işlemini mecburen yapıyoruz ve yorum yapmanızın siteye değil size faydası vardır. Teşekürler yazmayı çok görüp, Random/Spam mesajlar atarak Mega linklerini açmaya çalışan kullanıcılara önce süresiz ban, devam ederse IP ban atacağız.
Filmbol'da moderatör olmak ister misiniz? Bizimle iletişime geçmek için tıklayın!
Yakalandın! (Tag) Türkçe Dublaj BRRip XviD İndir
BroserBros
Yakalandın! (Tag) Türkçe Dublaj BRRip XviD İndir
0
264
  • Derecelendirme: 0/5 - 0 oy
  • 1
  • 2
  • 3
  • 4
  • 5
Konuyu Okuyanlar:1 Ziyaretçi
Şuan Online!
Filmin Yayınlanma Tarihi: 2018 
WWW
Şuan Online!
BroserBros Kurucu Admin
*******
Admin








tag




Teknik Detaylar


Kod :
General
Complete name                            : /root/Desktop/10/Tag.2018.BRRip.XviD.TR.Filmbol.avi
Format                                   : AVI
Format/Info                              : Audio Video Interleave
File size                                : 1.22 GiB
Duration                                 : 1h 40mn
Overall bit rate                         : 1 738 Kbps

Video
ID                                       : 0
Format                                   : MPEG-4 Visual
Format profile                           : [email protected]
Format settings, BVOP                    : No
Format settings, QPel                    : No
Format settings, GMC                     : No warppoints
Format settings, Matrix                  : Default (H.263)
Codec ID                                 : XVID
Codec ID/Hint                            : XviD
Duration                                 : 1h 40mn
Bit rate                                 : 1 597 Kbps
Width                                    : 720 pixels
Height                                   : 302 pixels
Display aspect ratio                     : 2.40:1
Frame rate                               : 23.976 fps
Color space                              : YUV
Chroma subsampling                       : 4:2:0
Bit depth                                : 8 bits
Scan type                                : Progressive
Compression mode                         : Lossy
Bits/(Pixel*Frame)                       : 0.306
Stream size                              : 1.12 GiB (92%)
Writing library                          : Lavc57.107.100

Audio
ID                                       : 1
Format                                   : MPEG Audio
Format version                           : Version 1
Format profile                           : Layer 3
Mode                                     : Joint stereo
Mode extension                           : MS Stereo
Codec ID                                 : 55
Codec ID/Hint                            : MP3
Duration                                 : 1h 40mn
Bit rate mode                            : Constant
Bit rate                                 : 128 Kbps
Channel(s)                               : 2 channels
Sampling rate                            : 48.0 KHz
Compression mode                         : Lossy
Stream size                              : 92.1 MiB (7%)
Alignment                                : Aligned on interleaves
Interleave, duration                     : 24 ms (0.58 video frame)

Film Detayları


tag

tag

tag


Film Fragmanı


Film Detayları

Brrip İndir



Uptobox ile indir

1Fichier ile indir

1Fichier'den İndiremiyor musun? Tıklayın!


Mega linki şuan da gizli. Kullanıma açmak için konuya yorum yapın ve ardından sayfayı yenileyin.

Mega


MediaFire ile indir



Konu ile Alakalı Benzer Konular
Konular Yazar Yorumlar Okunma Son Yorum
Filmin Yayınlanma Tarihi: 1972
Baba (The Godfather) - 1972 - TR - BRRip XviD | tt0068646 BroserBros 3 255 43 dakika önce
Son Yorum: Furkan61
Filmin Yayınlanma Tarihi: 1974
Baba 2 (The Godfather: Part II) - 1974 - TR - BRRip XviD | tt0071562 BroserBros 2 402 1 saat önce
Son Yorum: BroserBros
Filmin Yayınlanma Tarihi: 2008
VOL-i (WALL-E) - 2008 - TR - BRRip XviD | tt0910970 BroserBros 4 343 1 saat önce
Son Yorum: BroserBros
Filmin Yayınlanma Tarihi: 1990
Baba 3 (The Godfather: Part III) - 1990 - TR - BRRip XviD | tt0099674 BroserBros 3 286 2 saat önce
Son Yorum: Furkan61
Filmin Yayınlanma Tarihi: 1998
Armageddon (Armageddon) - 1998 - TR - BRRip XviD | tt0120591 BroserBros 1 266 4 saat önce
Son Yorum: BroserBros

Hızlı Menü: