Filmbol Forum Film İndir 1080P v Yakalandın! (Tag) Türkçe Dublaj BLURAY 1080P İndir
Filmbol'da moderatör olmak ister misiniz? Bizimle iletişime geçmek için tıklayın!
Yakalandın! (Tag) Türkçe Dublaj BLURAY 1080P İndir
BroserBros
Yakalandın! (Tag) Türkçe Dublaj BLURAY 1080P İndir
3
308
  • Derecelendirme: 0/5 - 0 oy
  • 1
  • 2
  • 3
  • 4
  • 5
Konuyu Okuyanlar:1 Ziyaretçi
Şuan Online!
Şuan Online!
BroserBros Kurucu Admin
*******
Admin

Vizyon Tarihi


29 Haziran 2018

imdb puanı


6,5 / 100,000

süre


100 dakika

Editör Puanı


7,0

Video Format: Mkv


Matroska (.MKV)

Ses Kodek: AC3


Audio Coding 3 (AC3)

sürüm


x264 | 1080P | BLURAY

Boyutlar


1,65



tag



Film Detayları

Russell Adams'ın 2013 yılı imzalı The Wall Street Journal yazısına dayanan film, bir çocuk oyununu dozunu arttırarak senelerce oynamaya devam eden bir arkadaş grubunu temel alıyor. Beş yakın arkadaş çocukluklarından beri yılda bir kez “elim sende” oynar. Bu durum artık onlar için bir gelenek haline gelmiştir. Herkes bu yılki oyuna hazırlanmıştır. Fakat bu sene oyun zamanı gruptan birinin düğününe denk gelir. Grubun asla yenilmeyen oyuncusu bu koşullarda kolay bir hedef olarak görülür. Fakat o kendini her şeye karşı hazırlamıştır.

Yakalandın! (Tag) Filmi Imdb'den 100,000 kişi tarafından oylandı ve 6,5 puan aldı. Bu film için editör puanı 7,0olarak belirlendi. İyi Seyirler!


Teknik Detaylar


Kod :
General
Unique ID                                : 34943821233675226574613981530389317691 (0x1A49EF673456F8193EBDE4A6AFF9883B)
Complete name                            : /root/Desktop/10/Tag.2018.1080p.BluRay.x264.TR.Filmbol.mkv
Format                                   : Matroska
Format version                           : Version 4 / Version 2
File size                                : 1.65 GiB
Duration                                 : 1h 40mn
Overall bit rate                         : 2 343 Kbps
Movie name                               : Tag (2018) - Filmbol.org
Encoded date                             : UTC 2019-12-29 15:20:53
Writing application                      : mkvmerge v35.0.0 ('All The Love In The World') 64-bit
Writing library                          : libebml v1.3.9 + libmatroska v1.5.2

Video
ID                                       : 1
Format                                   : AVC
Format/Info                              : Advanced Video Codec
Format profile                           : High@L4.1
Format settings, CABAC                   : Yes
Format settings, ReFrames                : 4 frames
Codec ID                                 : V_MPEG4/ISO/AVC
Duration                                 : 1h 40mn
Bit rate                                 : 2 150 Kbps
Width                                    : 1 920 pixels
Height                                   : 800 pixels
Display aspect ratio                     : 2.40:1
Frame rate mode                          : Constant
Frame rate                               : 23.976 (24000/1001) fps
Color space                              : YUV
Chroma subsampling                       : 4:2:0
Bit depth                                : 8 bits
Scan type                                : Progressive
Bits/(Pixel*Frame)                       : 0.058
Stream size                              : 1.51 GiB (92%)
Title                                    : 1080P - Filmbol.org
Writing library                          : x264 core 152
Encoding settings                        : cabac=1 / ref=4 / deblock=1:-1:-1 / analyse=0x3:0x133 / me=umh / subme=9 / psy=1 / psy_rd=1.00:0.15 / mixed_ref=1 / me_range=24 / chroma_me=1 / trellis=2 / 8x8dct=1 / cqm=0 / deadzone=21,11 / fast_pskip=0 / chroma_qp_offset=-3 / threads=12 / lookahead_threads=1 / sliced_threads=0 / nr=0 / decimate=1 / interlaced=0 / bluray_compat=0 / constrained_intra=0 / bframes=3 / b_pyramid=2 / b_adapt=2 / b_bias=0 / direct=3 / weightb=1 / open_gop=0 / weightp=2 / keyint=250 / keyint_min=23 / scenecut=40 / intra_refresh=0 / rc_lookahead=60 / rc=2pass / mbtree=1 / bitrate=2150 / ratetol=1.0 / qcomp=0.60 / qpmin=0 / qpmax=69 / qpstep=4 / cplxblur=20.0 / qblur=0.5 / vbv_maxrate=31250 / vbv_bufsize=31250 / nal_hrd=none / filler=0 / ip_ratio=1.40 / aq=1:1.00
Default                                  : Yes
Forced                                   : No

Audio
ID                                       : 2
Format                                   : AC-3
Format/Info                              : Audio Coding 3
Mode extension                           : CM (complete main)
Format settings, Endianness              : Big
Codec ID                                 : A_AC3
Duration                                 : 1h 40mn
Bit rate mode                            : Constant
Bit rate                                 : 192 Kbps
Channel(s)                               : 2 channels
Channel positions                        : Front: L R
Sampling rate                            : 48.0 KHz
Frame rate                               : 31.250 fps (1536 spf)
Compression mode                         : Lossy
Stream size                              : 138 MiB (8%)
Title                                    : Türkçe - Filmbol.org
Language                                 : English
Default                                  : No
Forced                                   : No

Film Detayları


tag

tag

tag


Film Fragmanı


Film Detayları

Mini 1080P İndir



Uptobox ile indir

1Fichier ile indir

1Fichier'den İndiremiyor musun? Tıklayın!


Mega ile indir

MediaFire ile indir

Şuan Offine!
Şuan Offine!
homeros Uzman Üye
**
Uzman Üye

  • Konular0
  • Mesajlar8
  • Rep puanı 0
Exclamation
Şuan Offine!
Şuan Offine!
Ba2han Yeni Üye
*
Üye

  • Konular0
  • Mesajlar5
  • Rep puanı 0
teşekkürlerr
Şuan Offine!
Şuan Offine!
ahmetklyc05 Yeni Üye
*
Üye

  • Konular0
  • Mesajlar1
  • Rep puanı 0
güzel elinize sağlık farklı bir platform


Konu ile Alakalı Benzer Konular
Konular Yazar Yorumlar Okunma Son Yorum
Filmin Yayınlanma Tarihi: 2019
Tolkien (2019) Türkçe Dublaj BLURAY m1080P İndir BroserBros 4 427 , Saat: 15:29
Son Yorum: Rocklion17
Filmin Yayınlanma Tarihi: 2020
Deathstroke Şövalyeler ve Ejderhalar (Deathstroke Knights & Dragons: The Movie) - 2020 - TR+ORG - 1080P BroserBros 0 41 23-11-2020, Saat: 18:31
Son Yorum: BroserBros
Filmin Yayınlanma Tarihi: 2019
15 Dakika Savaş (L'intervention) - 2019 - TR+ORG - 1080P BroserBros 0 43 23-11-2020, Saat: 17:42
Son Yorum: BroserBros
Filmin Yayınlanma Tarihi: 2020
Sürprizli Gece (The Sleepover) - 2020 - TR+ORG - 1080P BroserBros 0 44 23-11-2020, Saat: 16:19
Son Yorum: BroserBros
Filmin Yayınlanma Tarihi: 2020
Feride (Feride) - 2020 - TR+ORG - 1080P BroserBros 0 75 22-11-2020, Saat: 20:24
Son Yorum: BroserBros

Hızlı Menü: