Hoşgeldin, Ziyaretçi: Giriş Yap Üye Ol


Konuyu Oyla:
  • Derecelendirme: 0/5 - 0 oy
  • 1
  • 2
  • 3
  • 4
  • 5
Title: Yabani (Wildling) Türkçe Dublaj BRRip XviD İndir
Gösterim Stili
#1
Filmin Yayınlanma Tarihi: 2018 

vizyon tarihi


13 Nisan 2018

imdb puanı


5,5 / 11,000

süre


92 dakika

Editör Puanı


5,9 / 10

Video Format: Avi


Audio Video Interleave (.AVI)

Ses Kodek: MP3


MPEG-1 Audio Layer III (MP3)

sürüm


h263 | BRRip Xvid

Boyutlar


0,93



Yabani



Film, genç bir kızın büyüme hikayesi ile kurt adam efsanesini birleştiriyor ve ortaya korkutucu bir deneme çıkartıyor. Anna, dünyaya geldiğinden beri 'Baba' olarak bildiği bir adam tarafından toplumdan uzak bir şekilde büyütülmüştür ve bu adam, Anna'nın kökeniyle ilgili gerçeği ondan saklamak için elinden gelen her şeyi yapmıştır. Anna, polis memuru Ellen’ın koruması altında gerçek dünyaya adım attığında, çok geçmeden genç kızın sıradanlıktan çok uzak olduğu anlaşılacaktır. Normal hayata alışmakta zorlanan Anna, bir yandan içinde artmakta olan kana susamışlık hissiyle savaşırken, bir yandan da kendini vahşi doğaya çekilirken bulur.

Yabani (2018) (Wildling) Filmi Imdb'den 11,000 kişi tarafından oylandı ve 5,5 puan aldı. Bu film için editör puanı 5,9 olarak belirlendi. İyi Seyirler!

Teknik Detaylar

Kod:
General Complete name                            : /root/Desktop/7/Yabani.2018.BRRip.XviD.TR.Filmbol.avi Format                                   : AVI Format/Info                              : Audio Video Interleave File size                                : 931 MiB Duration                                 : 1h 32mn Overall bit rate                         : 1 406 Kbps  Video ID                                       : 0 Format                                   : MPEG-4 Visual Format profile                           : Simple@L5 Format settings, BVOP                    : No Format settings, QPel                    : No Format settings, GMC                     : No warppoints Format settings, Matrix                  : Default (H.263) Codec ID                                 : XVID Codec ID/Hint                            : XviD Duration                                 : 1h 32mn Bit rate                                 : 1 265 Kbps Width                                    : 720 pixels Height                                   : 304 pixels Display aspect ratio                     : 2.40:1 Frame rate                               : 23.976 fps Color space                              : YUV Chroma subsampling                       : 4:2:0 Bit depth                                : 8 bits Scan type                                : Progressive Compression mode                         : Lossy Bits/(Pixel*Frame)                       : 0.241 Stream size                              : 838 MiB (90%) Writing library                          : Lavc57.107.100  Audio ID                                       : 1 Format                                   : MPEG Audio Format version                           : Version 1 Format profile                           : Layer 3 Mode                                     : Joint stereo Mode extension                           : MS Stereo Codec ID                                 : 55 Codec ID/Hint                            : MP3 Duration                                 : 1h 32mn Bit rate mode                            : Constant Bit rate                                 : 128 Kbps Channel(s)                               : 2 channels Sampling rate                            : 48.0 KHz Compression mode                         : Lossy Stream size                              : 84.8 MiB (9%) Alignment                                : Aligned on interleaves Interleave, duration                     : 24 ms (0.58 video frame) Writing library                          : LAME3.99.5

Film Detayları


Yabani

Yabani

Yabani


Film Fragmanı


Film Detayları


Brrip İndir

Uptobox ile indir

1Fichier ile indir

Mega linki şuan da gizli. Kullanıma açmak için konuya yorum yapın ve ardından sayfayı yenileyin. Ayrıca bu linki açtığınızda reklamsız olarak erişebileceğinizi unutmayın.

Mega


Mediafire linki şuan da gizli. Kullanıma açmak için konuya yorum yapın ve ardından sayfayı yenileyin. Ayrıca bu linki açtığınızda reklamsız olarak erişebileceğinizi unutmayın.

Mediafire

 
Cevapla
  


Konu ile Alakalı Benzer Konular
Konular Yazar Yorumlar Okunma Son Yorum
Filmin Yayınlanma Tarihi: 2019 Hayvan Mezarlığı (Pet Samatary) Türkçe Dublaj Brrip Xvid İndir BroserBros 6 386 7 saat önce
Son Yorum: alynakrkya
Filmin Yayınlanma Tarihi: 2019 Kaçış Oyunu (Play or Die) Türkçe Dublaj BRRip XviD İndir BroserBros 2 226 , Saat: 12:12
Son Yorum: cemsav97
Filmin Yayınlanma Tarihi: 2007 Halloween 9 (Cadılar Bayramı) Türkçe Dublaj BRRip XviD İndir BroserBros 0 38 22-01-2020, Saat: 19:27
Son Yorum: BroserBros
Filmin Yayınlanma Tarihi: 2002 Halloween 8 (Korku Bayramı 2) Türkçe Dublaj BRRip XviD İndir BroserBros 0 33 22-01-2020, Saat: 19:14
Son Yorum: BroserBros
Filmin Yayınlanma Tarihi: 1998 Halloween 7: Korku Bayramı (Cadılar Bayramı 7) Türkçe Dublaj BRRip XviD İndir BroserBros 0 31 22-01-2020, Saat: 19:05
Son Yorum: BroserBros

Hızlı Menü:


Browsing: 1 Ziyaretçi