Filmbol Forum Film İndir 720P v Yabani (Wildling) Türkçe Dublaj BLURAY 720P İndir
Moderatör Alımları Başladı! Başvuru yapmak için tıklayın.
Filmbol Premium'da %50'e varan indirim fırsatı!
Yabani (Wildling) Türkçe Dublaj BLURAY 720P İndir
BroserBros
Yabani (Wildling) Türkçe Dublaj BLURAY 720P İndir
0
278
  • Derecelendirme: 0/5 - 0 oy
  • 1
  • 2
  • 3
  • 4
  • 5
Konuyu Okuyanlar:1 Ziyaretçi
Şuan Online!
Filmin Yayınlanma Tarihi: 2018 
Şuan Online!
BroserBros Kurucu Admin
*******
Admin

Vizyon Tarihi


13 Nisan 2018

imdb puanı


5,5 / 11,000

süre


92 dakika

Editör Puanı


5,9 / 10

Video Format: Mkv


Matroska (.MKV)

Ses Kodek: AC3


Audio Coding 3 (AC3)

sürüm


x264 | 720P | BLURAY

Boyutlar


0,81



Yabani



Film, genç bir kızın büyüme hikayesi ile kurt adam efsanesini birleştiriyor ve ortaya korkutucu bir deneme çıkartıyor. Anna, dünyaya geldiğinden beri 'Baba' olarak bildiği bir adam tarafından toplumdan uzak bir şekilde büyütülmüştür ve bu adam, Anna'nın kökeniyle ilgili gerçeği ondan saklamak için elinden gelen her şeyi yapmıştır. Anna, polis memuru Ellen’ın koruması altında gerçek dünyaya adım attığında, çok geçmeden genç kızın sıradanlıktan çok uzak olduğu anlaşılacaktır. Normal hayata alışmakta zorlanan Anna, bir yandan içinde artmakta olan kana susamışlık hissiyle savaşırken, bir yandan da kendini vahşi doğaya çekilirken bulur.

Yabani (2018) (Wildling) Filmi Imdb'den 11,000 kişi tarafından oylandı ve 5,5 puan aldı. Bu film için editör puanı 5,9 olarak belirlendi. İyi Seyirler!

Teknik Detaylar

Kod :
General Unique ID                                : 272245032153402659504926419378003645097 (0xCCD07C681A7253AFA3CAA3F92FB212A9) Complete name                            : /root/Desktop/7/Yabani.2018.720p.BluRay.x264.TR.Filmbol.mkv Format                                   : Matroska Format version                           : Version 4 / Version 2 File size                                : 813 MiB Duration                                 : 1h 32mn Overall bit rate                         : 1 231 Kbps Movie name                               : Yabani (2018) - Filmbol.org Encoded date                             : UTC 2020-01-09 00:14:46 Writing application                      : mkvmerge v35.0.0 ('All The Love In The World') 64-bit Writing library                          : libebml v1.3.9 + libmatroska v1.5.2  Video ID                                       : 1 Format                                   : AVC Format/Info                              : Advanced Video Codec Format profile                           : High@L4.1 Format settings, CABAC                   : Yes Format settings, ReFrames                : 4 frames Codec ID                                 : V_MPEG4/ISO/AVC Duration                                 : 1h 32mn Bit rate                                 : 1 050 Kbps Width                                    : 1 280 pixels Height                                   : 714 pixels Display aspect ratio                     : 16:9 Frame rate mode                          : Constant Frame rate                               : 23.976 (24000/1001) fps Color space                              : YUV Chroma subsampling                       : 4:2:0 Bit depth                                : 8 bits Scan type                                : Progressive Bits/(Pixel*Frame)                       : 0.048 Stream size                              : 694 MiB (85%) Title                                    : 720P - Filmbol.org Writing library                          : x264 core 152 Encoding settings                        : cabac=1 / ref=4 / deblock=1:-1:-1 / analyse=0x3:0x133 / me=umh / subme=9 / psy=1 / psy_rd=1.00:0.15 / mixed_ref=1 / me_range=24 / chroma_me=1 / trellis=2 / 8x8dct=1 / cqm=0 / deadzone=21,11 / fast_pskip=0 / chroma_qp_offset=-3 / threads=12 / lookahead_threads=1 / sliced_threads=0 / nr=0 / decimate=1 / interlaced=0 / bluray_compat=0 / constrained_intra=0 / bframes=3 / b_pyramid=2 / b_adapt=2 / b_bias=0 / direct=3 / weightb=1 / open_gop=0 / weightp=2 / keyint=250 / keyint_min=23 / scenecut=40 / intra_refresh=0 / rc_lookahead=60 / rc=2pass / mbtree=1 / bitrate=1050 / ratetol=1.0 / qcomp=0.60 / qpmin=0 / qpmax=69 / qpstep=4 / cplxblur=20.0 / qblur=0.5 / vbv_maxrate=31250 / vbv_bufsize=31250 / nal_hrd=none / filler=0 / ip_ratio=1.40 / aq=1:1.00 Default                                  : Yes Forced                                   : No  Audio ID                                       : 2 Format                                   : AC-3 Format/Info                              : Audio Coding 3 Mode extension                           : CM (complete main) Format settings, Endianness              : Big Codec ID                                 : A_AC3 Duration                                 : 1h 26mn Bit rate mode                            : Constant Bit rate                                 : 192 Kbps Channel(s)                               : 2 channels Channel positions                        : Front: L R Sampling rate                            : 48.0 KHz Frame rate                               : 31.250 fps (1536 spf) Compression mode                         : Lossy Stream size                              : 119 MiB (15%) Title                                    : Türkçe - Filmbol.org Language                                 : Turkish Default                                  : Yes Forced                                   : Yes

Film Detayları


Yabani

Yabani

Yabani


Film Fragmanı


Film Detayları

Mini 720P İndir

Uptobox ile indir

1Fichier ile indir

1Fichier'den İndiremiyor musun? Tıklayın!


Mega ile indir

MediaFire ile indir



Konu ile Alakalı Benzer Konular
Konular Yazar Yorumlar Okunma Son Yorum
Filmin Yayınlanma Tarihi: 2020
Larva Adası Filmi (The Larva Island Movie) - 2020 - TR+ORG - 720P BroserBros 0 32 , Saat: 20:06
Son Yorum: BroserBros
Filmin Yayınlanma Tarihi: 2019
Uyanış (Wake Up) - 2019 - TR+ORG - 720P BroserBros 0 33 , Saat: 19:49
Son Yorum: BroserBros
Filmin Yayınlanma Tarihi: 2019
Villains (Villains) - 2019 - TR+ORG - 720P BroserBros 0 61 11-08-2020, Saat: 15:41
Son Yorum: BroserBros
Filmin Yayınlanma Tarihi: 2020
Fatal Affair (Fatal Affair) - 2020 - TR+ORG - 720P BroserBros 0 154 07-08-2020, Saat: 20:13
Son Yorum: BroserBros
Filmin Yayınlanma Tarihi: 2018
Seksi Kadın (MILF) - 2018 - TR+ORG - 720P BroserBros 0 136 07-08-2020, Saat: 19:54
Son Yorum: BroserBros

Hızlı Menü: