Filmbol Forum Film İndir 1080P v Yabani (Wildling) Türkçe Dublaj BLURAY 1080P İndir
Filmbol'da moderatör olmak ister misiniz? Bizimle iletişime geçmek için tıklayın!
Yabani (Wildling) Türkçe Dublaj BLURAY 1080P İndir
BroserBros
Yabani (Wildling) Türkçe Dublaj BLURAY 1080P İndir
1
266
  • Derecelendirme: 0/5 - 0 oy
  • 1
  • 2
  • 3
  • 4
  • 5
Konuyu Okuyanlar:1 Ziyaretçi
Şuan Online!
Filmin Yayınlanma Tarihi: 2018 
Şuan Online!
BroserBros Kurucu Admin
*******
Admin

Vizyon Tarihi


13 Nisan 2018

imdb puanı


5,5 / 11,000

süre


92 dakika

Editör Puanı


5,9 / 10

Video Format: Mkv


Matroska (.MKV)

Ses Kodek: AC3


Audio Coding 3 (AC3)

sürüm


x264 | 1080P | BLURAY

Boyutlar


1,73



Yabani



Film, genç bir kızın büyüme hikayesi ile kurt adam efsanesini birleştiriyor ve ortaya korkutucu bir deneme çıkartıyor. Anna, dünyaya geldiğinden beri 'Baba' olarak bildiği bir adam tarafından toplumdan uzak bir şekilde büyütülmüştür ve bu adam, Anna'nın kökeniyle ilgili gerçeği ondan saklamak için elinden gelen her şeyi yapmıştır. Anna, polis memuru Ellen’ın koruması altında gerçek dünyaya adım attığında, çok geçmeden genç kızın sıradanlıktan çok uzak olduğu anlaşılacaktır. Normal hayata alışmakta zorlanan Anna, bir yandan içinde artmakta olan kana susamışlık hissiyle savaşırken, bir yandan da kendini vahşi doğaya çekilirken bulur.

Yabani (2018) (Wildling) Filmi Imdb'den 11,000 kişi tarafından oylandı ve 5,5 puan aldı. Bu film için editör puanı 5,9 olarak belirlendi. İyi Seyirler!

Teknik Detaylar

Kod :
General Unique ID                                : 115450261486311357219957182316058935949 (0x56DAE95C8BA63F6D40E3ACC4ACA6828D) Complete name                            : /root/Desktop/7/Yabani.2018.1080p.BluRay.x264.TR.Filmbol.mkv Format                                   : Matroska Format version                           : Version 4 / Version 2 File size                                : 1.73 GiB Duration                                 : 1h 32mn Overall bit rate                         : 2 677 Kbps Movie name                               : Yabani (2018) - Filmbol.org Encoded date                             : UTC 2020-01-09 00:13:38 Writing application                      : mkvmerge v35.0.0 ('All The Love In The World') 64-bit Writing library                          : libebml v1.3.9 + libmatroska v1.5.2  Video ID                                       : 1 Format                                   : AVC Format/Info                              : Advanced Video Codec Format profile                           : High@L4.1 Format settings, CABAC                   : Yes Format settings, ReFrames                : 4 frames Codec ID                                 : V_MPEG4/ISO/AVC Duration                                 : 1h 32mn Bit rate                                 : 2 500 Kbps Width                                    : 1 920 pixels Height                                   : 808 pixels Display aspect ratio                     : 2.40:1 Frame rate mode                          : Constant Frame rate                               : 23.976 (23976/1000) fps Color space                              : YUV Chroma subsampling                       : 4:2:0 Bit depth                                : 8 bits Scan type                                : Progressive Bits/(Pixel*Frame)                       : 0.067 Stream size                              : 1.61 GiB (93%) Title                                    : 1080P - Filmbol.org Writing library                          : x264 core 152 r2851M ba24899 Encoding settings                        : cabac=1 / ref=4 / deblock=1:-1:-1 / analyse=0x3:0x113 / me=umh / subme=9 / psy=1 / psy_rd=1.00:0.15 / mixed_ref=1 / me_range=24 / chroma_me=1 / trellis=2 / 8x8dct=1 / cqm=0 / deadzone=21,11 / fast_pskip=1 / chroma_qp_offset=-3 / threads=32 / lookahead_threads=4 / sliced_threads=0 / nr=0 / decimate=1 / interlaced=0 / bluray_compat=0 / constrained_intra=0 / bframes=3 / b_pyramid=2 / b_adapt=2 / b_bias=0 / direct=3 / weightb=1 / open_gop=0 / weightp=2 / keyint=250 / keyint_min=25 / scenecut=40 / intra_refresh=0 / rc_lookahead=50 / rc=2pass / mbtree=1 / bitrate=2500 / ratetol=1.0 / qcomp=0.60 / qpmin=0 / qpmax=69 / qpstep=4 / cplxblur=20.0 / qblur=0.5 / vbv_maxrate=31250 / vbv_bufsize=31250 / nal_hrd=none / filler=0 / ip_ratio=1.40 / aq=3:1.00 Default                                  : Yes Forced                                   : No  Audio ID                                       : 2 Format                                   : AC-3 Format/Info                              : Audio Coding 3 Mode extension                           : CM (complete main) Format settings, Endianness              : Big Codec ID                                 : A_AC3 Duration                                 : 1h 26mn Bit rate mode                            : Constant Bit rate                                 : 192 Kbps Channel(s)                               : 2 channels Channel positions                        : Front: L R Sampling rate                            : 48.0 KHz Frame rate                               : 31.250 fps (1536 spf) Compression mode                         : Lossy Delay relative to video                  : -43ms Stream size                              : 119 MiB (7%) Title                                    : Türkçe - Filmbol.org Language                                 : Turkish Default                                  : Yes Forced                                   : Yes

Film Detayları


Yabani

Yabani

Yabani


Film Fragmanı


Film Detayları

Mini 1080P İndir

Uptobox ile indir

1Fichier ile indir

1Fichier'den İndiremiyor musun? Tıklayın!


Mega ile indir

MediaFire ile indir

Şuan Offine!
Şuan Offine!
ahmetyee1 Süper Üye
***
Super Üye

  • Konular3
  • Mesajlar54
  • Rep puanı 0
güzel


Konu ile Alakalı Benzer Konular
Konular Yazar Yorumlar Okunma Son Yorum
Filmin Yayınlanma Tarihi: 2019
Tolkien (2019) Türkçe Dublaj BLURAY m1080P İndir BroserBros 4 428 , Saat: 15:29
Son Yorum: Rocklion17
Filmin Yayınlanma Tarihi: 2020
Deathstroke Şövalyeler ve Ejderhalar (Deathstroke Knights & Dragons: The Movie) - 2020 - TR+ORG - 1080P BroserBros 0 45 23-11-2020, Saat: 18:31
Son Yorum: BroserBros
Filmin Yayınlanma Tarihi: 2019
15 Dakika Savaş (L'intervention) - 2019 - TR+ORG - 1080P BroserBros 0 47 23-11-2020, Saat: 17:42
Son Yorum: BroserBros
Filmin Yayınlanma Tarihi: 2020
Sürprizli Gece (The Sleepover) - 2020 - TR+ORG - 1080P BroserBros 0 48 23-11-2020, Saat: 16:19
Son Yorum: BroserBros
Filmin Yayınlanma Tarihi: 2020
Feride (Feride) - 2020 - TR+ORG - 1080P BroserBros 0 78 22-11-2020, Saat: 20:24
Son Yorum: BroserBros

Hızlı Menü: