Filmbol Forum Film İndir BRRip XviD v X-Men: Dark Phoenix (2019) Türkçe Dublaj Brrip Xvid İndir
Filmbol'da moderatör olmak ister misiniz? Bizimle iletişime geçmek için tıklayın!
X-Men: Dark Phoenix (2019) Türkçe Dublaj Brrip Xvid İndir
BroserBros
X-Men: Dark Phoenix (2019) Türkçe Dublaj Brrip Xvid İndir
4
859
  • Derecelendirme: 0/5 - 0 oy
  • 1
  • 2
  • 3
  • 4
  • 5
Konuyu Okuyanlar:1 Ziyaretçi
Şuan Online!
Filmin Yayınlanma Tarihi: 2019 
Şuan Online!
BroserBros Kurucu Admin
*******
Admin

indirme türü


Bulut + Premium

Vizyon Tarihi


05 Haziran 2019

Boyutlar


1,38

diller


[TR]

altyazilar


KISIM [Eklenebilir]

Video Format: Avi


Audio Video Interleave (.AVI)

Video Detay


MPEG-4, 1598 Kbps, 1,27GB

imdb puanı


5,9 / 10,0 / 80,000

süre


113 dakika

Ses Kodek: MP3


MPEG-1 Audio Layer III (MP3)

Ses Detay


128 Kbps, 2 Kanal, 104 Mb

Editör Puanı


7,0

Genislik Yukseklik


720-304

sürüm


h263 | Brrip Xvid




X-Men Dark Phoenix


Film Detayları

X-Men ekibinin karşısında şimdiye kadarki en zorlu ve güçlü düşmanları vardır; içlerinde biri olan Jean Grey. Uzaydaki bir kurtarma görevi sırasında, Jean gizemli kozmik bir güç tarafından darbe alır. Neredeyse hayatını kaybeden Jean eve döndüğünde bu gücün onu daha güçlü kıldığını fark eder. Ancak bu güç onu aynı zamanda daha dengesiz bir hale de getirmiştir. İçindeki bu varlıkla mücadele eden Jean, güçlerini idrak edemediği ve sınırlandıramadığı bir şekilde serbest bırakır. Kontrolden çıkan Jean sevdiklerine zarar vermeye başlar ve X-Men’i bir arada tutan yapının çözülmesine sebep olur. Parçalanan ekip tekrar birlik olmanın yolunu bulmalıdır. Mevhubahis yalnızca Jean’i kurtarmak değil, aynı zamanda Jean’in içindeki gücü silahlaştırmak ve galaksiye hükmetmek isteyen uzaylılardan dünyayı kurtarmaktır.

X-Men: Dark Phoenix Filmi Imdb'den 80,000 kişi tarafından oylandı ve 5,9 puan aldı. Bu film için editör puanı 7,0 olarak belirlendi. İyi Seyirler!


Teknik Detaylar

Kod :
General
Complete name                            : Dark.Phoenix.2019.BRRip.XviD.TR.Filmbol.avi
Format                                   : AVI
Format/Info                              : Audio Video Interleave
File size                                : 1.38 GiB
Duration                                 : 1h 53mn
Overall bit rate                         : 1 739 Kbps

Video
ID                                       : 0
Format                                   : MPEG-4 Visual
Format profile                           : Simple@L5
Format settings, BVOP                    : No
Format settings, QPel                    : No
Format settings, GMC                     : No warppoints
Format settings, Matrix                  : Default (H.263)
Codec ID                                 : XVID
Codec ID/Hint                            : XviD
Duration                                 : 1h 53mn
Bit rate                                 : 1 598 Kbps
Width                                    : 720 pixels
Height                                   : 304 pixels
Display aspect ratio                     : 2.40:1
Frame rate                               : 23.976 fps
Color space                              : YUV
Chroma subsampling                       : 4:2:0
Bit depth                                : 8 bits
Scan type                                : Progressive
Compression mode                         : Lossy
Bits/(Pixel*Frame)                       : 0.304
Stream size                              : 1.27 GiB (92%)
Writing library                          : Lavc58.35.100

Audio
ID                                       : 1
Format                                   : MPEG Audio
Format version                           : Version 1
Format profile                           : Layer 3
Mode                                     : Joint stereo
Mode extension                           : MS Stereo
Codec ID                                 : 55
Codec ID/Hint                            : MP3
Duration                                 : 1h 53mn
Bit rate mode                            : Constant
Bit rate                                 : 128 Kbps
Channel(s)                               : 2 channels
Sampling rate                            : 48.0 KHz
Compression mode                         : Lossy
Stream size                              : 104 MiB (7%)
Alignment                                : Aligned on interleaves
Interleave, duration                     : 24 ms (0.58 video frame)
Writing library                          : LAME3.99.5



Film Detayları


Dark Phoenix

Dark Phoenix

Dark Phoenix


Film Fragmanı


Film Detayları

Brrip İndir


LetsUpload ile indir

Mega ile indir

MediaFire ile indir

Şuan Online!
Şuan Online!
gece_yagmuru Uzman Üye
**
Uzman Üye

  • Konular0
  • Mesajlar11
  • Rep puanı 0
süper filmm..
Şuan Offine!
Şuan Offine!
byrupi Yeni Üye
*
Üye

  • Konular0
  • Mesajlar2
  • Rep puanı 0
Tşk. Ellerinize sağlık.
Şuan Offine!
Şuan Offine!
komador06 Süper Üye
***
Super Üye

  • Konular0
  • Mesajlar28
  • Rep puanı 0
Teşekkürler....
Şuan Offine!
Şuan Offine!
Ali.ozdemir.46 Yeni Üye
*
Üye

  • Konular0
  • Mesajlar5
  • Rep puanı 0
nice nice


Konu ile Alakalı Benzer Konular
Konular Yazar Yorumlar Okunma Son Yorum
Filmin Yayınlanma Tarihi: 2020
Deathstroke Şövalyeler ve Ejderhalar (Deathstroke Knights & Dragons: The Movie) - 2020 - TR - BRRip XviD BroserBros 0 45 23-11-2020, Saat: 18:30
Son Yorum: BroserBros
Filmin Yayınlanma Tarihi: 2019
15 Dakika Savaş (L'intervention) - 2019 - TR - BRRip XviD BroserBros 0 46 23-11-2020, Saat: 17:42
Son Yorum: BroserBros
Filmin Yayınlanma Tarihi: 2020
Sürprizli Gece (The Sleepover) - 2020 - TR - BRRip XviD BroserBros 0 47 23-11-2020, Saat: 16:18
Son Yorum: BroserBros
Filmin Yayınlanma Tarihi: 2020
Feride (Feride) - 2020 - TR - BRRip XviD BroserBros 0 39 22-11-2020, Saat: 17:58
Son Yorum: BroserBros
Filmin Yayınlanma Tarihi: 2019
Gel Babacığına (Come to Daddy) - 2019 - TR - BRRip XviD BroserBros 0 35 22-11-2020, Saat: 17:43
Son Yorum: BroserBros

Hızlı Menü: