Filmbol Forum Film İndir UHD - ULTRA HD - 4K v Wonder Woman (Wonder Woman) - 2017 - TR+ORG - UHD (4K) - x265 10Bit
Moderatör Alımları Başladı! Başvuru yapmak için tıklayın.
Filmbol Premium'da %50'e varan indirim fırsatı!
Wonder Woman (Wonder Woman) - 2017 - TR+ORG - UHD (4K) - x265 10Bit
BroserBros
Wonder Woman (Wonder Woman) - 2017 - TR+ORG - UHD (4K) - x265 10Bit
0
164
  • Derecelendirme: 0/5 - 0 oy
  • 1
  • 2
  • 3
  • 4
  • 5
Konuyu Okuyanlar:1 Ziyaretçi
Şuan Online!
Şuan Online!
BroserBros Kurucu Admin
*******
Admin

Vizyon Tarihi


02 Haziran 2017

imdb puanı


7,4 / 530,000

süre


141 dakika

Editör Puanı


7,8 / 10

Video Format: Mkv


Matroska (.MKV)

Ses Kodek: AC3


Audio Coding 3 (AC3)

sürüm


x265 | 4K | x265 10Bit

Boyutlar


6,51 GB



 Wonder Woman



Amazon'da bir krallık vardır ki bu krallık hakkında dünyanın en ufak bilgisi yoktur. Bu krallık, tamamen kadınlardan oluşmaktadır ve bu yüzden yeni üyeleri çok nadir olarak çıkmaktadır. Yani doğum yapılmamaktadır. Neyse ki Diana Price bu krallığın son küçüğüdür ve büyüdüğünde onu doğaüstü güçler beklemektedir...

Wonder Woman (2017) (Wonder Woman) Filmi Imdb'den 530,000 kişi tarafından oylandı ve 7,4 puan aldı. Bu film için editör puanı 7,8 olarak belirlendi. İyi Seyirler!

Teknik Detaylar

Kod :
General
Unique ID                                : 129951018423642856164808998583992031013 (0x61C3A7E072F6AEBEBB4B20E443B39725)
Complete name                            : /root/Desktop/3/Wonder.Woman.2017.4K.BluRay.x265.10Bit.TR.ENG.Filmbol.mkv
Format                                  : Matroska
Format version                          : Version 4 / Version 2
File size                                : 6.51 GiB
Duration                                : 2h 21mn
Overall bit rate                        : 6 598 Kbps
Movie name                              : Wonder Woman - 2017 | Filmbol.org
Encoded date                            : UTC 2020-05-11 13:03:34
Writing application                      : mkvmerge v8.8.0 ('Wind at my back') 64bit
Writing library                          : libebml v1.3.3 + libmatroska v1.4.4

Video
ID                                      : 1
Format                                  : HEVC
Format/Info                              : High Efficiency Video Coding
Format profile                          : Main 10@L5@Main
Codec ID                                : V_MPEGH/ISO/HEVC
Duration                                : 2h 21mn
Bit rate                                : 5 999 Kbps
Width                                    : 3 840 pixels
Height                                  : 1 600 pixels
Display aspect ratio                    : 2.40:1
Frame rate mode                          : Constant
Frame rate                              : 23.976 (24000/1001) fps
Color space                              : YUV
Chroma subsampling                      : 4:2:0
Bit depth                                : 10 bits
Bits/(Pixel*Frame)                      : 0.041
Stream size                              : 5.92 GiB (91%)
Title                                    : FHD
Writing library                          : x265 3.3+4-30eb4de83092:[Linux][GCC 7.4.0][64 bit] 10bit
Encoding settings                        : cpuid=1111039 / frame-threads=3 / wpp / no-pmode / no-pme / no-psnr / no-ssim / log-level=2 / input-csp=1 / input-res=3840x1600 / interlace=0 / total-frames=0 / level-idc=0 / high-tier=1 / uhd-bd=0 / ref=4 / no-allow-non-conformance / no-repeat-headers / annexb / no-aud / no-hrd / info / hash=0 / no-temporal-layers / open-gop / min-keyint=23 / keyint=250 / gop-lookahead=0 / bframes=4 / b-adapt=2 / b-pyramid / bframe-bias=0 / rc-lookahead=25 / lookahead-slices=4 / scenecut=40 / hist-scenecut=0 / radl=0 / no-splice / no-intra-refresh / ctu=64 / min-cu-size=8 / rect / no-amp / max-tu-size=32 / tu-inter-depth=1 / tu-intra-depth=1 / limit-tu=0 / rdoq-level=2 / dynamic-rd=0.00 / no-ssim-rd / signhide / no-tskip / nr-intra=0 / nr-inter=0 / no-constrained-intra / strong-intra-smoothing / max-merge=3 / limit-refs=3 / limit-modes / me=3 / subme=3 / merange=57 / temporal-mvp / no-frame-dup / no-hme / weightp / no-weightb / no-analyze-src-pics / deblock=0:0 / sao / no-sao-non-deblock / rd=4 / selective-sao=4 / no-early-skip / rskip / no-fast-intra / no-tskip-fast / no-cu-lossless / no-b-intra / no-splitrd-skip / rdpenalty=0 / psy-rd=2.00 / psy-rdoq=1.00 / no-rd-refine / no-lossless / cbqpoffs=0 / crqpoffs=0 / rc=abr / bitrate=6000 / qcomp=0.60 / qpstep=4 / stats-write=0 / stats-read=2 / cplxblur=20.0 / qblur=0.5 / ipratio=1.40 / pbratio=1.30 / aq-mode=2 / aq-strength=1.00 / cutree / zone-count=0 / no-strict-cbr / qg-size=32 / no-rc-grain / qpmax=69 / qpmin=0 / no-const-vbv / sar=1 / overscan=0 / videoformat=5 / range=0 / colorprim=2 / transfer=2 / colormatrix=2 / chromaloc=0 / display-window=0 / cll=0,0 / min-luma=0 / max-luma=1023 / log2-max-poc-lsb=8 / vui-timing-info / vui-hrd-info / slices=1 / no-opt-qp-pps / no-opt-ref-list-length-pps / no-multi-pass-opt-rps / scenecut-bias=0.05 / hist-threshold=0.01 / no-opt-cu-delta-qp / no-aq-motion / no-hdr10 / no-hdr10-opt / no-dhdr10-opt / no-idr-recovery-sei / analysis-reuse-level=0 / analysis-save-reuse-level=0 / analysis-load-reuse-level=0 / scale-factor=0 / refine-intra=0 / refine-inter=0 / refine-mv=1 / refine-ctu-distortion=0 / no-limit-sao / ctu-info=0 / no-lowpass-dct / refine-analysis-type=0 / copy-pic=1 / max-ausize-factor=1.0 / no-dynamic-refine / no-single-sei / no-hevc-aq / no-svt / no-field / qp-adaptation-range=1.00 / no-scenecut-aware-qpconformance-window-offsets / right=0 / bottom=0
Default                                  : Yes
Forced                                  : No
Color range                              : Limited

Audio #1
ID                                      : 2
Format                                  : AC-3
Format/Info                              : Audio Coding 3
Mode extension                          : CM (complete main)
Format settings, Endianness              : Big
Codec ID                                : A_AC3
Duration                                : 2h 21mn
Bit rate mode                            : Constant
Bit rate                                : 448 Kbps
Channel(s)                              : 6 channels
Channel positions                        : Front: L C R, Side: L R, LFE
Sampling rate                            : 48.0 KHz
Frame rate                              : 31.250 fps (1536 spf)
Compression mode                        : Lossy
Stream size                              : 453 MiB (7%)
Title                                    : Türkçe - Filmbol.org
Language                                : Turkish
Default                                  : Yes
Forced                                  : Yes

Audio #2
ID                                      : 3
Format                                  : AAC
Format/Info                              : Advanced Audio Codec
Format profile                          : LC
Codec ID                                : A_AAC
Duration                                : 2h 21mn
Bit rate                                : 139 Kbps
Channel(s)                              : 2 channels
Channel positions                        : Front: L R
Sampling rate                            : 48.0 KHz
Frame rate                              : 46.875 fps (1024 spf)
Compression mode                        : Lossy
Stream size                              : 141 MiB (2%)
Title                                    : İngilizce - Filmbol.org
Language                                : English
Default                                  : No
Forced                                  : No

Text
ID                                      : 4
Format                                  : PGS
Muxing mode                              : zlib
Codec ID                                : S_HDMV/PGS
Codec ID/Info                            : Picture based subtitle format used on BDs/HD-DVDs
Duration                                : 2h 20mn
Bit rate                                : 8 360 bps
Count of elements                        : 3182
Stream size                              : 8.39 MiB (0%)
Title                                    : Türkçe Altyazı
Default                                  : Yes
Forced                                  : No

Film Detayları


 Wonder Woman

 Wonder Woman

 Wonder Woman


Film Fragmanı


Film Detayları

Uptobox ile indir

1Fichier ile indir

1Fichier'den İndiremiyor musun? Tıklayın!


Bunun için üzgünüz ancak, bu linke sadece premium üyeler erişebilir.

Filmbol Cloud



Konu ile Alakalı Benzer Konular
Konular Yazar Yorumlar Okunma Son Yorum
Filmin Yayınlanma Tarihi: 2020
Vahşetin Çağrısı (The Call of the Wild) - 2020 - TR+ORG - UHD (4K) - 10Bit-x265 BroserBros 0 230 05-08-2020, Saat: 20:47
Son Yorum: BroserBros
Filmin Yayınlanma Tarihi: 2018
Gölge Savaşçı (Shadow - Ying) - 2018 - TR+ORG - UHD (4K) - 10Bit-x265 BroserBros 0 110 26-07-2020, Saat: 12:57
Son Yorum: BroserBros
Filmin Yayınlanma Tarihi: 2020
Lanetli Çocuk 2 (Brahms: The Boy II) - 2020 - TR+ORG - UHD (4K) - 10Bit-x265 BroserBros 0 57 25-07-2020, Saat: 20:11
Son Yorum: BroserBros
Filmin Yayınlanma Tarihi: 2019
Hustlers (Hustlers) - 2019 - TR+ORG - UHD (4K) - 10Bit-x265 BroserBros 0 99 10-07-2020, Saat: 22:31
Son Yorum: BroserBros
Filmin Yayınlanma Tarihi: 2019
Hellboy (Hellboy) - 2019 - TR+ORG - UHD (4K) - 10Bit-x265 BroserBros 0 136 03-07-2020, Saat: 12:40
Son Yorum: BroserBros

Hızlı Menü: