Filmbol Forum Film İndir 3D v Wonder Woman (Wonder Woman) - 2017 - TR+ORG - 3D
Moderatör Alımları Başladı! Başvuru yapmak için tıklayın.
Filmbol Premium'da %50'e varan indirim fırsatı!
Wonder Woman (Wonder Woman) - 2017 - TR+ORG - 3D
BroserBros
Wonder Woman (Wonder Woman) - 2017 - TR+ORG - 3D
0
161
  • Derecelendirme: 0/5 - 0 oy
  • 1
  • 2
  • 3
  • 4
  • 5
Konuyu Okuyanlar:1 Ziyaretçi
Şuan Offine!
Filmin Yayınlanma Tarihi: 2017 
Şuan Offine!
BroserBros Kurucu Admin
*******
Admin

Vizyon Tarihi


02 Haziran 2017

imdb puanı


7,4 / 530,000

süre


141 dakika

Editör Puanı


7,8 / 10

Video Format: Mkv


Matroska (.MKV)

Ses Kodek: AC3


Audio Coding 3 (AC3)

sürüm


x264 | 3D | BLURAY

Boyutlar


2,61 GB



 Wonder Woman



Amazon'da bir krallık vardır ki bu krallık hakkında dünyanın en ufak bilgisi yoktur. Bu krallık, tamamen kadınlardan oluşmaktadır ve bu yüzden yeni üyeleri çok nadir olarak çıkmaktadır. Yani doğum yapılmamaktadır. Neyse ki Diana Price bu krallığın son küçüğüdür ve büyüdüğünde onu doğaüstü güçler beklemektedir...

Wonder Woman (2017) (Wonder Woman) Filmi Imdb'den 530,000 kişi tarafından oylandı ve 7,4 puan aldı. Bu film için editör puanı 7,8 olarak belirlendi. İyi Seyirler!

Teknik Detaylar

Kod :
General
Unique ID                                : 23162083480079072947084390062265039222 (0x116CDAE241202BA891FA43C9C6CD7976)
Complete name                            : /root/Desktop/3/Wonder.Woman.2017.3D.HSBS.BluRay.x264.TR.ENG.Filmbol.mkv
Format                                  : Matroska
Format version                          : Version 4 / Version 2
File size                                : 2.61 GiB
Duration                                : 2h 21mn
Overall bit rate                        : 2 648 Kbps
Movie name                              : Wonder Woman - 2017 | Filmbol.org
Encoded date                            : UTC 2020-05-11 13:00:38
Writing application                      : mkvmerge v8.8.0 ('Wind at my back') 64bit
Writing library                          : libebml v1.3.3 + libmatroska v1.4.4

Video
ID                                      : 1
Format                                  : AVC
Format/Info                              : Advanced Video Codec
Format profile                          : High@L4.1
Format settings, CABAC                  : Yes
Format settings, ReFrames                : 4 frames
Codec ID                                : V_MPEG4/ISO/AVC
Duration                                : 2h 21mn
Bit rate                                : 2 050 Kbps
Width                                    : 1 920 pixels
Height                                  : 800 pixels
Display aspect ratio                    : 2.40:1
Frame rate mode                          : Constant
Frame rate                              : 23.976 (24000/1001) fps
Color space                              : YUV
Chroma subsampling                      : 4:2:0
Bit depth                                : 8 bits
Scan type                                : Progressive
Bits/(Pixel*Frame)                      : 0.056
Stream size                              : 2.02 GiB (77%)
Title                                    : 3D
Writing library                          : x264 core 148
Encoding settings                        : cabac=1 / ref=4 / deblock=1:-1:-1 / analyse=0x3:0x133 / me=umh / subme=9 / psy=1 / psy_rd=1.00:0.15 / mixed_ref=1 / me_range=24 / chroma_me=1 / trellis=2 / 8x8dct=1 / cqm=0 / deadzone=21,11 / fast_pskip=0 / chroma_qp_offset=-3 / threads=12 / lookahead_threads=1 / sliced_threads=0 / nr=0 / decimate=1 / interlaced=0 / bluray_compat=0 / constrained_intra=0 / bframes=3 / b_pyramid=2 / b_adapt=2 / b_bias=0 / direct=3 / weightb=1 / open_gop=0 / weightp=2 / keyint=250 / keyint_min=23 / scenecut=40 / intra_refresh=0 / rc_lookahead=60 / rc=2pass / mbtree=1 / bitrate=2050 / ratetol=1.0 / qcomp=0.60 / qpmin=0 / qpmax=69 / qpstep=4 / cplxblur=20.0 / qblur=0.5 / vbv_maxrate=31250 / vbv_bufsize=31250 / nal_hrd=none / filler=0 / ip_ratio=1.40 / aq=1:1.00
Default                                  : Yes
Forced                                  : No

Audio #1
ID                                      : 2
Format                                  : AC-3
Format/Info                              : Audio Coding 3
Mode extension                          : CM (complete main)
Format settings, Endianness              : Big
Codec ID                                : A_AC3
Duration                                : 2h 21mn
Bit rate mode                            : Constant
Bit rate                                : 448 Kbps
Channel(s)                              : 6 channels
Channel positions                        : Front: L C R, Side: L R, LFE
Sampling rate                            : 48.0 KHz
Frame rate                              : 31.250 fps (1536 spf)
Compression mode                        : Lossy
Stream size                              : 453 MiB (17%)
Title                                    : Türkçe - Filmbol.org
Language                                : Turkish
Default                                  : Yes
Forced                                  : Yes

Audio #2
ID                                      : 3
Format                                  : AAC
Format/Info                              : Advanced Audio Codec
Format profile                          : LC
Codec ID                                : A_AAC
Duration                                : 2h 21mn
Bit rate                                : 139 Kbps
Channel(s)                              : 2 channels
Channel positions                        : Front: L R
Sampling rate                            : 48.0 KHz
Frame rate                              : 46.875 fps (1024 spf)
Compression mode                        : Lossy
Stream size                              : 141 MiB (5%)
Title                                    : İngilizce - Filmbol.org
Language                                : English
Default                                  : No
Forced                                  : No

Text
ID                                      : 4
Format                                  : PGS
Muxing mode                              : zlib
Codec ID                                : S_HDMV/PGS
Codec ID/Info                            : Picture based subtitle format used on BDs/HD-DVDs
Duration                                : 2h 20mn
Bit rate                                : 8 360 bps
Count of elements                        : 3182
Stream size                              : 8.39 MiB (0%)
Title                                    : Türkçe Altyazı
Default                                  : Yes
Forced                                  : No

Film Detayları


 Wonder Woman

 Wonder Woman

 Wonder Woman


Film Fragmanı


Film Detayları

Uptobox ile indir

1Fichier ile indir

1Fichier'den İndiremiyor musun? Tıklayın!


Mega ile indir

Bunun için üzgünüz ancak, bu linke sadece premium üyeler erişebilir.

Filmbol Cloud



Konu ile Alakalı Benzer Konular
Konular Yazar Yorumlar Okunma Son Yorum
Filmin Yayınlanma Tarihi: 2017
Çılgın Hırsız 3 (Despicable Me 3) - 2017 - TR+ORG - 3D BroserBros 0 157 11-06-2020, Saat: 20:38
Son Yorum: BroserBros
Filmin Yayınlanma Tarihi: 2017
Coco (Koko) - 2017 - TR+ORG - 3D BroserBros 0 195 21-05-2020, Saat: 14:27
Son Yorum: BroserBros
Filmin Yayınlanma Tarihi: 2017
Arabalar 3 (Cars 3) - 2017 - TR+ORG - 3D BroserBros 0 167 14-05-2020, Saat: 22:53
Son Yorum: BroserBros
Filmin Yayınlanma Tarihi: 2017
Kral Arthur: Kılıç Efsanesi (King Arthur: Legend of the Sword) - 2017 - TR+ORG - 3D BroserBros 0 154 14-05-2020, Saat: 22:41
Son Yorum: BroserBros
Filmin Yayınlanma Tarihi: 2017
Justice League: Adalet Birliği (Justice League) - 2017 - TR+ORG - 3D BroserBros 0 142 14-05-2020, Saat: 22:09
Son Yorum: BroserBros

Hızlı Menü: