Hoşgeldin, Ziyaretçi: Giriş Yap Üye Ol


stats
Adblock'u kapattıysanız tıklayın.
Hoşgeldiniz!
Filmbol'u tercih ettiğiniz için teşekkürler, ancak ablock kullanarak devam edemezsiniz.
Merak etmeyin. Heryerden ardı ardına çıkan reklamlar görmeyeceksiniz :)

Sadece site içi 1 reklam göreceksin ve bu site gezintini etkilemeyecek.
Konuyu Oyla:
  • Derecelendirme: 0/5 - 0 oy
  • 1
  • 2
  • 3
  • 4
  • 5
Vurgun (The Trust) Türkçe Dublaj m1080P İndir
#1
Filmin Yayınlanma Tarihi: 2016 

indirme türü


Bulut + Premium

vizyon tarihi


13 Mayıs 2016

Boyutlar


1,40GB

diller


[TR]

altyazilar


Yok [Eklenebilir]

Video Format: Mkv


Matroska (.MKV)

Video Detay


MPEG-4, 1999 Kbps, 1,25GB

imdb puanı


5,4 / 10,0 / 15,000

süre


92 dakika

Ses Kodek: AC3


Audio Coding 3 (AC3)

Ses Detay


192 Kbps, 2 Kanal, 126 Mb

rarsifresi


filmbol.org

Editör Puanı


6,0

Genislik Yukseklik


1920x1040

sürüm


x264 | m1080P



Film Detayları

Nicolas Cage ve Elijah Wood’un iki polis memurunu canlandırdığı filmin yönetmen koltuğunda Alex Brewer ve Benjamin Brewer oturuyor. Las Vegas Polis Departmanı’nda, sıkıcı idari işlerde görevli ve fazladan para kazanabilmek için çaldıkları Sivil Servis Sınav sorularını diğer memurlara satan iki polis memuru olan Waters ve Stone, uyuşturucu operasyonuyla ilgili bir bilgiye tesadüfen rastlarlar. Bu iki arkadaş paranın kaynağını bulabilmek için harekete geçerler. Özenli bir araştırmadan sonra ulaştıkları ipuçları onları sandıklarından çok daha tehlikeli bir durumun ortasında bırakır. 


Teknik Detaylar

Kod:
General
Format                                   : Matroska
Format version                           : Version 4 / Version 2
File size                                : 1.40 GiB
Duration                                 : 1h 31mn
Overall bit rate                         : 2 192 Kbps
Movie name                               : The Trust - Filmbol.org

Video
ID                                       : 1
Format                                   : AVC
Format/Info                              : Advanced Video Codec
Format profile                           : High@L4.1
Format settings, CABAC                   : Yes
Format settings, ReFrames                : 4 frames
Codec ID                                 : V_MPEG4/ISO/AVC
Duration                                 : 1h 31mn
Bit rate                                 : 1 999 Kbps
Width                                    : 1 920 pixels
Height                                   : 1 040 pixels
Display aspect ratio                     : 1.85:1
Frame rate mode                          : Constant
Frame rate                               : 23.976 fps
Color space                              : YUV
Chroma subsampling                       : 4:2:0
Bit depth                                : 8 bits
Scan type                                : Progressive
Bits/(Pixel*Frame)                       : 0.042
Stream size                              : 1.25 GiB (89%)
Title                                    : m1080P - Filmbol.org
Writing library                          : x264 core 148 r2638 7599210
Default                                  : Yes
Forced                                   : No
Color primaries                          : BT.709
Matrix coefficients                      : BT.709

Audio
ID                                       : 2
Format                                   : AC-3
Format/Info                              : Audio Coding 3
Mode extension                           : CM (complete main)
Format settings, Endianness              : Big
Codec ID                                 : A_AC3
Duration                                 : 1h 31mn
Bit rate mode                            : Constant
Bit rate                                 : 192 Kbps
Channel(s)                               : 2 channels
Channel positions                        : Front: L R
Sampling rate                            : 48.0 KHz
Bit depth                                : 16 bits
Compression mode                         : Lossy
Stream size                              : 126 MiB (9%)
Title                                    : Türkçe - Filmbol.org
Language                                 : Turkish
Default                                  : Yes
Forced                                   : No




Film Detayları


Vurgun

Vurgun

Vurgun

Vurgun

Vurgun


Film Fragmanı


Film Detayları

Mini 1080P İndir


Turbobit İle İndir

Mega ile indir

Uptobox ile indir

Mypcloud ile indir

 
Cevapla
#2
Harika
 
Cevapla
  


Hızlı Menü:


Şu anda bu konuyu okuyanlar: 1 Ziyaretçi