Hoşgeldin, Ziyaretçi: Giriş Yap Üye Ol


stats
Adblock'u kapattıysanız tıklayın.
Hoşgeldiniz!
Filmbol'u tercih ettiğiniz için teşekkürler, ancak ablock kullanarak devam edemezsiniz.
Merak etmeyin. Heryerden ardı ardına çıkan reklamlar görmeyeceksiniz :)

Sadece site içi 1 reklam göreceksin ve bu site gezintini etkilemeyecek.
Konuyu Oyla:
  • Derecelendirme: 0/5 - 0 oy
  • 1
  • 2
  • 3
  • 4
  • 5
Title: Venom: Zehirli Öfke Türkçe Dublaj Brrip-Xvid İndir
Gösterim Stili
#1
Filmin Yayınlanma Tarihi: 2018 

indirme türü


Bulut + Premium

vizyon tarihi


05 Ocak 2018

Boyutlar


1,35

diller


[TR]

altyazilar


Yok [Eklenebilir]

Video Format: Avi


Audio Video Interleave (.AVI)

Video Detay


MPEG-4, 1597 Kbps, 1,25 GB

imdb puanı


6,8 / 10,0 / 230,000

süre


118 dakika

Ses Kodek: MP3


MPEG-1 Audio Layer III (MP3)

Ses Detay


128 Kbps, 2 Kanal, 103Mb

Editör Puanı


7,3

Genislik Yukseklik


720-300

sürüm


h263 | Brrip-Xvid



Film Detayları

Venom: Zehirli Öfke (2018) Türkçe Dublaj Bluray Brrip-Xvid İndir | Kısa özet:
Aslında başarısız olan bir muhabir, bir şirketin yasadışı deneyler yaptığı ve dünya dışı varlıklar ile ilgilendiğini açığa vurmak ister. Ancak işler istediği gibi gitmez, eşi terkeder ve işinden kovulur. Ancak bu muhabir, ne olursa olsun bu haberi yapmak istemektedir ancak işin sonunda başına kötü şeyler gelir.
Venom: Zehirli Öfke (2018) Filmi İmdb'den 230.000 kişi tarafından oylandı ve 6,8 puan aldı. Bu film için editör puanı 7,3 olarak belirlendi. İyi Seyirler!


Teknik Detaylar


Kod:
General
Complete name                            : Venom.2018.BRRip.Xvid.TR.Filmbol.avi
Format                                   : AVI
Format/Info                              : Audio Video Interleave
File size                                : 1.36 GiB
Duration                                 : 1h 52mn
Overall bit rate                         : 1 738 Kbps

Video
ID                                       : 0
Format                                   : MPEG-4 Visual
Format profile                           : Simple@L5
Format settings, BVOP                    : No
Format settings, QPel                    : No
Format settings, GMC                     : No warppoints
Format settings, Matrix                  : Default (H.263)
Codec ID                                 : XVID
Codec ID/Hint                            : XviD
Duration                                 : 1h 52mn
Bit rate                                 : 1 597 Kbps
Width                                    : 720 pixels
Height                                   : 300 pixels
Display aspect ratio                     : 2.40:1
Frame rate                               : 23.976 fps
Color space                              : YUV
Chroma subsampling                       : 4:2:0
Bit depth                                : 8 bits
Scan type                                : Progressive
Compression mode                         : Lossy
Bits/(Pixel*Frame)                       : 0.308
Stream size                              : 1.25 GiB (92%)
Writing library                          : Lavc58.35.100

Audio
ID                                       : 1
Format                                   : MPEG Audio
Format version                           : Version 1
Format profile                           : Layer 3
Mode                                     : Joint stereo
Mode extension                           : MS Stereo
Codec ID                                 : 55
Codec ID/Hint                            : MP3
Duration                                 : 1h 52mn
Bit rate mode                            : Constant
Bit rate                                 : 128 Kbps
Channel(s)                               : 2 channels
Sampling rate                            : 48.0 KHz
Compression mode                         : Lossy
Stream size                              : 103 MiB (7%)
Alignment                                : Aligned on interleaves
Interleave, duration                     : 24 ms (0.58 video frame)


Film Detayları


Venom

Venom

Venom

Venom

Venom



Film Fragmanı


Film Detayları

Brrip İndir


Uptobox ile indir


CloudRu ile indir

aeO9
Mega linki şuan da gizli. Kullanıma açmak için konuya yorum yapın ve ardından sayfayı yenileyin. Ayrıca bu linki açtığınızda reklamsız olarak erişebileceğinizi unutmayın.

Mega



 
Cevapla
#2
gerçekten çok iyi bir site
 
Cevapla
#3
Teşekkürler
 
Cevapla
  


Konu ile Alakalı Benzer Konular
Konular Yazar Yorumlar Okunma Son Yorum
Filmin Yayınlanma Tarihi: 2019 Avengers: Endgame (2019) Türkçe Dublaj Brrip Xvid İndir BroserBros 17 718 49 dakika önce
Son Yorum: imdb789
Filmin Yayınlanma Tarihi: 2015 Labirent: Alev Deneyleri (Maze Run.:The Scorch Trials) Türkçe Dublaj Brrip-Xvid İndir BroserBros 1 5,109 , Saat: 06:48
Son Yorum: BroserBros
Filmin Yayınlanma Tarihi: 2014 Labirent: Ölümcül Kaçış (The Maze Runner) Türkçe Dublaj Brrip-Xvid İndir BroserBros 2 6,833 , Saat: 06:41
Son Yorum: BroserBros
Filmin Yayınlanma Tarihi: 2014 Yıldızlararası (Interstellar) Türkçe Dublaj Brrip-Xvid İndir BroserBros 8 3,686 , Saat: 02:39
Son Yorum: BroserBros
Filmin Yayınlanma Tarihi: 2015 Terminatör: Yaradılış (Terminator: Genisys) Türkçe Dublaj Brrip-Xvid İndir BroserBros 1 1,481 , Saat: 02:32
Son Yorum: BroserBros

Hızlı Menü:


Browsing: 1 Ziyaretçi