Hoşgeldin, Ziyaretçi: Giriş Yap Üye Ol


stats
Adblock'u kapattıysanız tıklayın.
Hoşgeldiniz!
Filmbol'u tercih ettiğiniz için teşekkürler, ancak ablock kullanarak devam edemezsiniz.
Merak etmeyin. Heryerden ardı ardına çıkan reklamlar görmeyeceksiniz :)

Sadece site içi 1 reklam göreceksin ve bu site gezintini etkilemeyecek.
Konuyu Oyla:
  • Derecelendirme: 5/5 - 1 oy
  • 1
  • 2
  • 3
  • 4
  • 5
Venom: Zehirli Öfke (2018) Türkçe Dublaj Bluray m1080P İndir
#1
Filmin Yayınlanma Tarihi: 2018 

indirme türü


Bulut + Premium

vizyon tarihi


05 Ocak 2018

Boyutlar


2,15

diller


[TR]

altyazilar


Yok [Eklenebilir]

Video Format: Mkv


Matroska (.MKV)

Video Detay


MPEG-4, 2150 Kbps, 1,68 GB

imdb puanı


6,8 / 10,0 / 230,000

süre


118 dakika

Ses Kodek: AC3


Audio Coding 3 (AC3)

Ses Detay


384 Kbps, 6 Kanal, 308Mb

rarsifresi


filmbol.org

Editör Puanı


7,3

Genislik Yukseklik


1920-800

sürüm


x264 | m1080P



Film Detayları

Venom: Zehirli Öfke (2018) Türkçe Dublaj Bluray Brrip-Xvid İndir | Kısa özet:
Aslında başarısız olan bir muhabir, bir şirketin yasadışı deneyler yaptığı ve dünya dışı varlıklar ile ilgilendiğini açığa vurmak ister. Ancak işler istediği gibi gitmez, eşi terkeder ve işinden kovulur. Ancak bu muhabir, ne olursa olsun bu haberi yapmak istemektedir ancak işin sonunda başına kötü şeyler gelir.
Venom: Zehirli Öfke (2018) Filmi İmdb'den 230.000 kişi tarafından oylandı ve 6,8 puan aldı. Bu film için editör puanı 7,3 olarak belirlendi. İyi Seyirler!


Teknik Detaylar



Kod:
General
Complete name                            : Venom.2018.m1080p.BLURAY.x264-TR.Filmbol.mkv
Format                                   : Matroska
Format version                           : Version 4 / Version 2
File size                                : 1.99 GiB
Duration                                 : 1h 52mn
Overall bit rate                         : 2 536 Kbps
Movie name                               : Venom (2018) - TR m1080P - Filmbol.org
Encoded date                             : UTC 2019-02-07 07:21:49
Writing application                      : mkvmerge v8.8.0 ('Wind at my back') 64bit
Writing library                          : libebml v1.3.3 + libmatroska v1.4.4

Video
ID                                       : 1
Format                                   : AVC
Format/Info                              : Advanced Video Codec
Format profile                           : High@L4.1
Format settings, CABAC                   : Yes
Format settings, ReFrames                : 4 frames
Codec ID                                 : V_MPEG4/ISO/AVC
Duration                                 : 1h 52mn
Bit rate                                 : 2 150 Kbps
Width                                    : 1 920 pixels
Height                                   : 800 pixels
Display aspect ratio                     : 2.40:1
Frame rate mode                          : Constant
Frame rate                               : 23.976 (24000/1001) fps
Color space                              : YUV
Chroma subsampling                       : 4:2:0
Bit depth                                : 8 bits
Scan type                                : Progressive
Bits/(Pixel*Frame)                       : 0.058
Stream size                              : 1.68 GiB (85%)
Title                                    : m1080P - Filmbol.org
Writing library                          : x264 core 157
Default                                  : Yes
Forced                                   : No

Audio
ID                                       : 2
Format                                   : AC-3
Format/Info                              : Audio Coding 3
Mode extension                           : CM (complete main)
Format settings, Endianness              : Big
Codec ID                                 : A_AC3
Duration                                 : 1h 52mn
Bit rate mode                            : Constant
Bit rate                                 : 384 Kbps
Channel(s)                               : 6 channels
Channel positions                        : Front: L C R, Side: L R, LFE
Sampling rate                            : 48.0 KHz
Frame rate                               : 31.250 fps (1536 spf)
Compression mode                         : Lossy
Stream size                              : 308 MiB (15%)
Title                                    : Türkçe- Filmbol.org
Language                                 : Turkish
Default                                  : Yes
Forced                                   : No


Film Detayları


Venom

Venom

Venom

Venom

Venom



Film Fragmanı


Film Detayları

Mini 1080P İndir


Turbobit İle İndir

Uptobox ile indir

Filmbol'da aşağıdaki linkler sadece üyelere sunulur. Ayrıca bu linklerde link kısaltma servisleri kullanılmaz, linke tek tık ile reklamsız erişirsiniz. Konu'ya yorum yapın ve sayfayı yenileyin. Reklamsız linkler (en az 3 en fazla 5 link) açılmış olacaktır. Not: Filmbol'a üye olmak tamamen ücretsizdir, en az 3 link kuralı 01.07.2019 tarihinden sonraki paylaşımlar için geçerlidir. Ancak çoğu film için en az bir premium link her zaman bulunur.

Mega

Dosyaco

Dosyaupload

Mediafire

Google Drive
 
Cevapla
#2
Teşekkürler Smile Mega'ya da yükleme şansınız var mı?
 
Cevapla
#3
(07-02-2019, Saat: 15:54)MrNtlu Adlı Kullanıcıdan Alıntı: Teşekkürler Smile Mega'ya da yükleme şansınız var mı?


Bundan sonra ki m1080P linkleri yeni dosya limitlerinden dolayı MEGA ve CLOUDRU iile gelmeyecek. Ancak bunların yerine DOSYACO ve DOSYAUP'un yanında GOOGLEDRİVE ve PCLOUD linkleri gelecek. Bu iki sağlam link, mega'dan daha hızlıdır. Herhangi bir problem yaşamayacaksın.

Venom filminde bu linkler şuan gizli, yorum yaptıktan sonra sayfayı yenile ve premium linklerine ulaş. Sen zaten yorum yaptığına göre, linkleri görüyorsun Smile
 
Cevapla
#4
Yasak 
:)































534W4W5654W46EW456WS64S5
 
Cevapla
#5
teşekkürler Smile
 
Cevapla
#6
çook efsane güzel film serinin devamı efsane olucak
 
Cevapla
#7
Efsane filmmm
 
Cevapla
#8
teşekkürler dostlar
 
Cevapla
#9
teşekkürler
 
Cevapla
#10
teşekkürler
 
Cevapla
  


Konu ile Alakalı Benzer Konular
Konular Yazar Yorumlar Okunma Son Yorum
Filmin Yayınlanma Tarihi: 2019 Captain Marvel Türkçe Dublaj BLURAY m1080P İndir BroserBros 2 108 19-07-2019, Saat: 21:39
Son Yorum: inansah
Filmin Yayınlanma Tarihi: 2018 Yenilmezler: Sonsuzluk Savaşı (2018) Türkçe Dublaj m1080P İndir BroserBros 2 5,579 02-05-2019, Saat: 17:18
Son Yorum: emircan
Filmin Yayınlanma Tarihi: 2015 Marslı (The Martian) (2015) Türkçe Dublaj Bluray m1080P İndir BroserBros 1 4,732 17-02-2019, Saat: 12:45
Son Yorum: back-ir
Filmin Yayınlanma Tarihi: 2018 Başlat (Ready Player One) (2018) Türkçe Dublaj m1080P İndir BroserBros 0 921 19-07-2018, Saat: 22:09
Son Yorum: BroserBros

Hızlı Menü:


Şu anda bu konuyu okuyanlar: 1 Ziyaretçi