Filmbol Forum Film İndir BRRip XviD v Velvet Buzzshaw (2019) Türkçe Dublaj Brrip Xvid İndir
Filmbol'da moderatör olmak ister misiniz? Bizimle iletişime geçmek için tıklayın!
Velvet Buzzshaw (2019) Türkçe Dublaj Brrip Xvid İndir
BroserBros
Velvet Buzzshaw (2019) Türkçe Dublaj Brrip Xvid İndir
2
449
  • Derecelendirme: 0/5 - 0 oy
  • 1
  • 2
  • 3
  • 4
  • 5
Konuyu Okuyanlar:1 Ziyaretçi
Şuan Online!
Filmin Yayınlanma Tarihi: 2019 
Şuan Online!
BroserBros Kurucu Admin
*******
Admin

indirme türü


Bulut + Premium

Vizyon Tarihi


01 Şubat 2019

Boyutlar


1,35

diller


[TR]

altyazilar


KISIM [Eklenebilir]

Video Format: Avi


Audio Video Interleave (.AVI)

Video Detay


MPEG-4, 1597 Kbps, 1,25GB

imdb puanı


5,7 / 10,0 / 45,000

süre


113 dakika

Ses Kodek: MP3


MPEG-1 Audio Layer III (MP3)

Ses Detay


128 Kbps, 2 Kanal, 103Mb

Editör Puanı


6,0

Genislik Yukseklik


720-384

sürüm


h263 | WEBRip Xvid




Velvet Buzzshaw


Film Detayları

Velvet Buzzsaw, ölü bir sanatçının tablolarının ele geçirilmesinin ardından yaşanan korkunç olayları konu ediyor. Morf Vandewalt, zor beğenen bir sanat simsarıdır. Eline geçen onlarca sanat eserinden sadece birkaç tanesini değerli bulur. Onun en önem verdiği şey eserin orijinal olmasıdır. Ancak bir gün karşısına konulan resim onun gerçekten ilgisini çekmeyi başarır. Resmin sahibi dairesinde ölü olarak bulunmasının ardından eserleri gün yüzüne çıkmıştır ve Morf için eseler kelimenin tam anlamıyla olağanüstüdür. Ancak resimleri ele geçirenler bir süre sonra tablolarda bir tuhaflık olduğunu fark eder. İnsanlar tabloların uzun süre bakıldıktan sonra canlandığını düşünmektedir. Bir süre sonra ise doğaüstü bir güç, açgözlülüğün sanatın önünce geçmesine izin verenlerden intikam almaya başlar.
 
Velvet Buzzshaw (2019) Filmi Imdb'den 45,000 kişi tarafından oylandı ve 5,7 puan aldı. Bu film için editör puanı 6,0 olarak belirlendi. İyi Seyirler!


Teknik Detaylar

Kod :
General
Complete name                            : Velvet.Buzzsaw.2019.WEBRip.XViD.TR.Filmbol.avi
Format                                   : AVI
Format/Info                              : Audio Video Interleave
File size                                : 1.37 GiB
Duration                                 : 1h 52mn
Overall bit rate                         : 1 738 Kbps

Video
ID                                       : 0
Format                                   : MPEG-4 Visual
Format profile                           : Simple@L5
Format settings, BVOP                    : No
Format settings, QPel                    : No
Format settings, GMC                     : No warppoints
Format settings, Matrix                  : Default (H.263)
Codec ID                                 : XVID
Codec ID/Hint                            : XviD
Duration                                 : 1h 52mn
Bit rate                                 : 1 597 Kbps
Width                                    : 720 pixels
Height                                   : 384 pixels
Display aspect ratio                     : 1.85:1
Frame rate                               : 24.000 fps
Color space                              : YUV
Chroma subsampling                       : 4:2:0
Bit depth                                : 8 bits
Scan type                                : Progressive
Compression mode                         : Lossy
Bits/(Pixel*Frame)                       : 0.241
Stream size                              : 1.25 GiB (92%)
Writing library                          : Lavc58.1.100

Audio
ID                                       : 1
Format                                   : MPEG Audio
Format version                           : Version 1
Format profile                           : Layer 3
Mode                                     : Joint stereo
Mode extension                           : MS Stereo
Codec ID                                 : 55
Codec ID/Hint                            : MP3
Duration                                 : 1h 52mn
Bit rate mode                            : Constant
Bit rate                                 : 128 Kbps
Channel(s)                               : 2 channels
Sampling rate                            : 48.0 KHz
Compression mode                         : Lossy
Stream size                              : 103 MiB (7%)
Alignment                                : Aligned on interleaves
Interleave, duration                     : 24 ms (0.58 video frame)



Film Detayları


Velvet Buzzshaw

Velvet Buzzshaw

Velvet Buzzshaw


Film Fragmanı


Film Detayları

Brrip İndir


LetsUpload ile indir


Mega ile indir

rB7H
Şuan Offine!
Şuan Offine!
hercaitoprak Yeni Üye
*
Üye

  • Konular0
  • Mesajlar1
  • Rep puanı 0
Teşekkürler
Şuan Offine!
Şuan Offine!
gece_yagmuru Uzman Üye
**
Uzman Üye

  • Konular0
  • Mesajlar11
  • Rep puanı 0
umarım güzeldir


Konu ile Alakalı Benzer Konular
Konular Yazar Yorumlar Okunma Son Yorum
Filmin Yayınlanma Tarihi: 2020
Deathstroke Şövalyeler ve Ejderhalar (Deathstroke Knights & Dragons: The Movie) - 2020 - TR - BRRip XviD BroserBros 0 13 9 saat önce
Son Yorum: BroserBros
Filmin Yayınlanma Tarihi: 2019
15 Dakika Savaş (L'intervention) - 2019 - TR - BRRip XviD BroserBros 0 14 10 saat önce
Son Yorum: BroserBros
Filmin Yayınlanma Tarihi: 2020
Sürprizli Gece (The Sleepover) - 2020 - TR - BRRip XviD BroserBros 0 16 , Saat: 16:18
Son Yorum: BroserBros
Filmin Yayınlanma Tarihi: 2020
Feride (Feride) - 2020 - TR - BRRip XviD BroserBros 0 36 22-11-2020, Saat: 17:58
Son Yorum: BroserBros
Filmin Yayınlanma Tarihi: 2019
Gel Babacığına (Come to Daddy) - 2019 - TR - BRRip XviD BroserBros 0 31 22-11-2020, Saat: 17:43
Son Yorum: BroserBros

Hızlı Menü: