Hoşgeldin, Ziyaretçi: Giriş Yap Üye Ol


Konuyu Oyla:
  • Derecelendirme: 0/5 - 0 oy
  • 1
  • 2
  • 3
  • 4
  • 5
Title: Van Gogh: Sonsuzluğun Kapısında (At Eternity's Gate) Türkçe Dublaj Brrip Xvid İndir
Gösterim Stili
#1
Filmin Yayınlanma Tarihi: 2018 

indirme türü


Bulut + Premium

vizyon tarihi


15 Şubat 2019

Boyutlar


1,31

diller


[TR]

altyazilar


Yok [Eklenebilir]

Video Format: Avi


Audio Video Interleave (.AVI)

Video Detay


MPEG-4, 1542Kbps, 1,20GB

imdb puanı


6,9 / 10,0 / 21,000

süre


111 dakika

Ses Kodek: MP3


MPEG-1 Audio Layer III (MP3)

Ses Detay


128 Kbps, 2 Kanal, 102Mb

Editör Puanı


6,2

Genislik Yukseklik


720-302

sürüm


h263 | Brrip Xvid




Van Gogh: Sonsuzluğun Kapısında


Film Detayları

Van Gogh: Sonsuzluğun Kapısında, Vincent van Gogh’un Arles’teki son zamanlarını konu ediyor. Ünlü ressamının hayatının ele alındığı filmde, Van Gogh’u William Dafoe canlandırıyor. Van Gogh’un hayatının bilinmeyenlerinin anlatıldığı yapımın yönetmen koltuğunda Julian Schnabel oturuyor. Senaryosunu yönetmen Schnabel ve Jean-Claude Carrière’nin birlikte kaleme aldığı biyografik yapımın oyuncu kadrosunda Oscar Isaac, Rupert Friend, Mads Mikkelsen gibi isimler yer alıyor.

Van Gogh: Sonsuzluğun Kapısında (At Eternity's Gate) Filmi Imdb'den 21,000 kişi tarafından oylandı ve 6,9 puan aldı. Bu film için editör puanı 6,0 olarak belirlendi. İyi Seyirler!


Teknik Detaylar


Kod:
General
Complete name                            : Van.Gogh.Sonsuzluğun.Kapısında.2018.BRRip.XviD.TR.Filmbol.avi
Format                                   : AVI
Format/Info                              : Audio Video Interleave
File size                                : 1.31 GiB
Duration                                 : 1h 51mn
Overall bit rate                         : 1 683 Kbps

Video
ID                                       : 0
Format                                   : MPEG-4 Visual
Format profile                           : Simple@L5
Format settings, BVOP                    : No
Format settings, QPel                    : No
Format settings, GMC                     : No warppoints
Format settings, Matrix                  : Default (H.263)
Codec ID                                 : XVID
Codec ID/Hint                            : XviD
Duration                                 : 1h 51mn
Bit rate                                 : 1 542 Kbps
Width                                    : 720 pixels
Height                                   : 302 pixels
Display aspect ratio                     : 2.40:1
Frame rate                               : 23.976 (23976/1000) fps
Color space                              : YUV
Chroma subsampling                       : 4:2:0
Bit depth                                : 8 bits
Scan type                                : Progressive
Compression mode                         : Lossy
Bits/(Pixel*Frame)                       : 0.296
Stream size                              : 1.20 GiB (92%)
Writing library                          : Lavc58.35.100

Audio
ID                                       : 1
Format                                   : MPEG Audio
Format version                           : Version 1
Format profile                           : Layer 3
Mode                                     : Joint stereo
Mode extension                           : MS Stereo
Codec ID                                 : 55
Codec ID/Hint                            : MP3
Duration                                 : 1h 51mn
Bit rate mode                            : Constant
Bit rate                                 : 128 Kbps
Channel(s)                               : 2 channels
Sampling rate                            : 48.0 KHz
Compression mode                         : Lossy
Stream size                              : 102 MiB (8%)
Alignment                                : Aligned on interleaves
Interleave, duration                     : 24 ms (0.58 video frame)

Film Detayları


Van Gogh: Sonsuzluğun Kapısında

Van Gogh: Sonsuzluğun Kapısında

Van Gogh: Sonsuzluğun Kapısında


Film Fragmanı


Film Detayları

Brrip İndir


Uptobox ile indir

1Fichier ile indir

LetsUpload ile indir

Mega linki şuan da gizli. Kullanıma açmak için konuya yorum yapın ve ardından sayfayı yenileyin. Ayrıca bu linki açtığınızda reklamsız olarak erişebileceğinizi unutmayın.

Mega


Mediafire linki şuan da gizli. Kullanıma açmak için konuya yorum yapın ve ardından sayfayı yenileyin. Ayrıca bu linki açtığınızda reklamsız olarak erişebileceğinizi unutmayın.

Mediafire

 
Cevapla
#2
teşekrler
 
Cevapla
#3
teşekkürler
 
Cevapla
#4
teşekkürler güzel film
 
Cevapla
#5
Thx a lot.
 
Cevapla
#6
teşekkürler
 
Cevapla
#7
teşekkürler
 
Cevapla
#8
ooo oobvoovovov
 
Cevapla
  


Konu ile Alakalı Benzer Konular
Konular Yazar Yorumlar Okunma Son Yorum
Filmin Yayınlanma Tarihi: 2015 Chappie (Chappie) Türkçe Dublaj Bluray Brrip-Xvid İndir BroserBros 3 2,025 09-02-2020, Saat: 04:36
Son Yorum: filmbolcu
Filmin Yayınlanma Tarihi: 2018 Merak Etme, Fazla Uzaklaşamaz (2018) Türkçe Dublaj Brrip Xvid İndir BroserBros 2 249 05-02-2020, Saat: 00:12
Son Yorum: Megalodon
Filmin Yayınlanma Tarihi: 2015 Diriliş (The Revenant) Türkçe Dublaj Brrip-Xvid İndir BroserBros 2 3,127 03-02-2020, Saat: 19:32
Son Yorum: badboys755
Filmin Yayınlanma Tarihi: 2018 Nina Hakkında Herşey (All About Nina) Türkçe Dublaj BRRip XviD İndir BroserBros 0 48 02-02-2020, Saat: 21:14
Son Yorum: BroserBros
Filmin Yayınlanma Tarihi: 2016 Frekans (Cell) Türkçe Dublaj Brrip-Xvid İndir BroserBros 1 872 31-01-2020, Saat: 19:39
Son Yorum: ismail30

Hızlı Menü:


Browsing: 1 Ziyaretçi