Filmbol Forum Film İndir BRRip XviD v Van Gogh: Sonsuzluğun Kapısında (At Eternity's Gate) Türkçe Dublaj Brrip Xvid İndir
Moderatör Alımları Başladı! Başvuru yapmak için tıklayın.
Filmbol Premium'da %50'e varan indirim fırsatı!
Van Gogh: Sonsuzluğun Kapısında (At Eternity's Gate) Türkçe Dublaj Brrip Xvid İndir
BroserBros
Van Gogh: Sonsuzluğun Kapısında (At Eternity's Gate) Türkçe Dublaj Brrip Xvid İndir
7
469
  • Derecelendirme: 0/5 - 0 oy
  • 1
  • 2
  • 3
  • 4
  • 5
Konuyu Okuyanlar:1 Ziyaretçi
Şuan Offine!
Filmin Yayınlanma Tarihi: 2018 
Şuan Offine!
BroserBros Kurucu Admin
*******
Admin

indirme türü


Bulut + Premium

Vizyon Tarihi


15 Şubat 2019

Boyutlar


1,31

diller


[TR]

altyazilar


Yok [Eklenebilir]

Video Format: Avi


Audio Video Interleave (.AVI)

Video Detay


MPEG-4, 1542Kbps, 1,20GB

imdb puanı


6,9 / 10,0 / 21,000

süre


111 dakika

Ses Kodek: MP3


MPEG-1 Audio Layer III (MP3)

Ses Detay


128 Kbps, 2 Kanal, 102Mb

Editör Puanı


6,2

Genislik Yukseklik


720-302

sürüm


h263 | Brrip Xvid




Van Gogh: Sonsuzluğun Kapısında


Film Detayları

Van Gogh: Sonsuzluğun Kapısında, Vincent van Gogh’un Arles’teki son zamanlarını konu ediyor. Ünlü ressamının hayatının ele alındığı filmde, Van Gogh’u William Dafoe canlandırıyor. Van Gogh’un hayatının bilinmeyenlerinin anlatıldığı yapımın yönetmen koltuğunda Julian Schnabel oturuyor. Senaryosunu yönetmen Schnabel ve Jean-Claude Carrière’nin birlikte kaleme aldığı biyografik yapımın oyuncu kadrosunda Oscar Isaac, Rupert Friend, Mads Mikkelsen gibi isimler yer alıyor.

Van Gogh: Sonsuzluğun Kapısında (At Eternity's Gate) Filmi Imdb'den 21,000 kişi tarafından oylandı ve 6,9 puan aldı. Bu film için editör puanı 6,0 olarak belirlendi. İyi Seyirler!


Teknik Detaylar


Kod :
General
Complete name                            : Van.Gogh.Sonsuzluğun.Kapısında.2018.BRRip.XviD.TR.Filmbol.avi
Format                                   : AVI
Format/Info                              : Audio Video Interleave
File size                                : 1.31 GiB
Duration                                 : 1h 51mn
Overall bit rate                         : 1 683 Kbps

Video
ID                                       : 0
Format                                   : MPEG-4 Visual
Format profile                           : Simple@L5
Format settings, BVOP                    : No
Format settings, QPel                    : No
Format settings, GMC                     : No warppoints
Format settings, Matrix                  : Default (H.263)
Codec ID                                 : XVID
Codec ID/Hint                            : XviD
Duration                                 : 1h 51mn
Bit rate                                 : 1 542 Kbps
Width                                    : 720 pixels
Height                                   : 302 pixels
Display aspect ratio                     : 2.40:1
Frame rate                               : 23.976 (23976/1000) fps
Color space                              : YUV
Chroma subsampling                       : 4:2:0
Bit depth                                : 8 bits
Scan type                                : Progressive
Compression mode                         : Lossy
Bits/(Pixel*Frame)                       : 0.296
Stream size                              : 1.20 GiB (92%)
Writing library                          : Lavc58.35.100

Audio
ID                                       : 1
Format                                   : MPEG Audio
Format version                           : Version 1
Format profile                           : Layer 3
Mode                                     : Joint stereo
Mode extension                           : MS Stereo
Codec ID                                 : 55
Codec ID/Hint                            : MP3
Duration                                 : 1h 51mn
Bit rate mode                            : Constant
Bit rate                                 : 128 Kbps
Channel(s)                               : 2 channels
Sampling rate                            : 48.0 KHz
Compression mode                         : Lossy
Stream size                              : 102 MiB (8%)
Alignment                                : Aligned on interleaves
Interleave, duration                     : 24 ms (0.58 video frame)

Film Detayları


Van Gogh: Sonsuzluğun Kapısında

Van Gogh: Sonsuzluğun Kapısında

Van Gogh: Sonsuzluğun Kapısında


Film Fragmanı


Film Detayları

Brrip İndir


Uptobox ile indir

1Fichier ile indir

1Fichier'den İndiremiyor musun? Tıklayın!


LetsUpload ile indir

Mega ile indir

MediaFire ile indir

Şuan Offine!
Şuan Offine!
mkacanjuly25 Yeni Üye
*
Üye

  • Konular0
  • Mesajlar2
  • Rep puanı 0
teşekrler
Şuan Offine!
Şuan Offine!
simurg26 Uzman Üye
**
Uzman Üye

  • Konular0
  • Mesajlar8
  • Rep puanı 0
teşekkürler
Şuan Offine!
Şuan Offine!
ii2019ii Yeni Üye
*
Üye

  • Konular0
  • Mesajlar2
  • Rep puanı 0
teşekkürler güzel film
Şuan Offine!
Şuan Offine!
umut6716 Yeni Üye
*
Üye

  • Konular0
  • Mesajlar1
  • Rep puanı 0
Thx a lot.
Şuan Offine!
Şuan Offine!
alpha Yeni Üye
*
Üye

  • Konular0
  • Mesajlar1
  • Rep puanı 0
teşekkürler
Şuan Offine!
Şuan Offine!
BqRs Uzman Üye
**
Uzman Üye

  • Konular0
  • Mesajlar8
  • Rep puanı 0
teşekkürler
Şuan Offine!
Şuan Offine!
annenocococ Yeni Üye
*
Üye

  • Konular0
  • Mesajlar1
  • Rep puanı 0
ooo oobvoovovov


Konu ile Alakalı Benzer Konular
Konular Yazar Yorumlar Okunma Son Yorum
Filmin Yayınlanma Tarihi: 2014
Lucy (2014) Türkçe Dublaj BRRip XviD İndir BroserBros 1 255 19-09-2020, Saat: 00:56
Son Yorum: sectechno
Filmin Yayınlanma Tarihi: 2020
The Hunt (Av) - 2020 - TR - BRRip XviD BroserBros 0 234 18-09-2020, Saat: 19:28
Son Yorum: BroserBros
Filmin Yayınlanma Tarihi: 2018
Gözbebeğim (Pupille) - 2018 - TR - BRRip XviD BroserBros 0 234 18-09-2020, Saat: 13:02
Son Yorum: BroserBros
Filmin Yayınlanma Tarihi: 2019
Umut Vadisi (Hope Gap) - 2019 - TR - BRRip XviD BroserBros 0 233 18-09-2020, Saat: 12:50
Son Yorum: BroserBros
Filmin Yayınlanma Tarihi: 2019
Cep Herkülü: Naim Süleymanoğlu (Cep Herkülü: Naim Süleymanoğlu) - 2019 - TR - BRRip XviD BroserBros 0 111 15-09-2020, Saat: 21:51
Son Yorum: BroserBros

Hızlı Menü: