Filmbol Forum Film İndir 720P v Van Gogh: Sonsuzluğun Kapısında (At Eternity's Gate) Türkçe Dublaj BLURAY 720P İndir
Filmbol'da moderatör olmak ister misiniz? Bizimle iletişime geçmek için tıklayın!
Van Gogh: Sonsuzluğun Kapısında (At Eternity's Gate) Türkçe Dublaj BLURAY 720P İndir
BroserBros
Van Gogh: Sonsuzluğun Kapısında (At Eternity's Gate) Türkçe Dublaj BLURAY 720P İndir
2
445
  • Derecelendirme: 0/5 - 0 oy
  • 1
  • 2
  • 3
  • 4
  • 5
Konuyu Okuyanlar:1 Ziyaretçi
Şuan Online!
Filmin Yayınlanma Tarihi: 2018 
Şuan Online!
BroserBros Kurucu Admin
*******
Admin

indirme türü


Bulut + Premium

Vizyon Tarihi


15 Şubat 2019

Boyutlar


0,98

diller


[TR]

altyazilar


Yok [Eklenebilir]

Video Format: Mkv


Matroska (.MKV)

Video Detay


MPEG-4, 1050Kbps, 0,83GB

imdb puanı


6,9 / 10,0 / 21,000

süre


111 dakika

Ses Kodek: AC3


Audio Coding 3 (AC3)

Ses Detay


192 Kbps, 2 Kanal, 153Mb

Editör Puanı


6,2

Genislik Yukseklik


1280-534

sürüm


x264 | 720P




Van Gogh: Sonsuzluğun Kapısında


Film Detayları

Van Gogh: Sonsuzluğun Kapısında, Vincent van Gogh’un Arles’teki son zamanlarını konu ediyor. Ünlü ressamının hayatının ele alındığı filmde, Van Gogh’u William Dafoe canlandırıyor. Van Gogh’un hayatının bilinmeyenlerinin anlatıldığı yapımın yönetmen koltuğunda Julian Schnabel oturuyor. Senaryosunu yönetmen Schnabel ve Jean-Claude Carrière’nin birlikte kaleme aldığı biyografik yapımın oyuncu kadrosunda Oscar Isaac, Rupert Friend, Mads Mikkelsen gibi isimler yer alıyor.

Van Gogh: Sonsuzluğun Kapısında (At Eternity's Gate) Filmi Imdb'den 21,000 kişi tarafından oylandı ve 6,9 puan aldı. Bu film için editör puanı 6,0 olarak belirlendi. İyi Seyirler!


Teknik Detaylar


Kod :
General
Complete name                            : Van.Gogh.Sonsuzluğun.Kapısında.2018.720p.BLURAY.x264.TR.Filmbol.mkv
Format                                   : Matroska
Format version                           : Version 4 / Version 2
File size                                : 989 MiB
Duration                                 : 1h 51mn
Overall bit rate                         : 1 243 Kbps
Movie name                               : Van Gogh: Sonsuzluğun Kapısında (2018) - Filmbol.org
Encoded date                             : UTC 2019-12-18 02:52:45
Writing application                      : mkvmerge v35.0.0 ('All The Love In The World') 64-bit
Writing library                          : libebml v1.3.9 + libmatroska v1.5.2

Video
ID                                       : 1
Format                                   : AVC
Format/Info                              : Advanced Video Codec
Format profile                           : High@L4.1
Format settings, CABAC                   : Yes
Format settings, ReFrames                : 4 frames
Codec ID                                 : V_MPEG4/ISO/AVC
Duration                                 : 1h 51mn
Bit rate                                 : 1 050 Kbps
Width                                    : 1 280 pixels
Height                                   : 534 pixels
Display aspect ratio                     : 2.40:1
Original display aspect ratio            : 2.40:1
Frame rate mode                          : Constant
Frame rate                               : 23.976 (24000/1001) fps
Color space                              : YUV
Chroma subsampling                       : 4:2:0
Bit depth                                : 8 bits
Scan type                                : Progressive
Bits/(Pixel*Frame)                       : 0.064
Stream size                              : 835 MiB (84%)
Title                                    : m720P - Filmbol.org
Writing library                          : x264 core 152
Default                                  : Yes
Forced                                   : No

Audio
ID                                       : 2
Format                                   : AC-3
Format/Info                              : Audio Coding 3
Mode extension                           : CM (complete main)
Format settings, Endianness              : Big
Codec ID                                 : A_AC3
Duration                                 : 1h 51mn
Bit rate mode                            : Constant
Bit rate                                 : 192 Kbps
Channel(s)                               : 2 channels
Channel positions                        : Front: L R
Sampling rate                            : 48.0 KHz
Frame rate                               : 31.250 fps (1536 spf)
Compression mode                         : Lossy
Stream size                              : 153 MiB (15%)
Title                                    : Türkçe - Filmbol.org
Language                                 : Turkish
Default                                  : Yes
Forced                                   : No

Film Detayları


Van Gogh: Sonsuzluğun Kapısında

Van Gogh: Sonsuzluğun Kapısında

Van Gogh: Sonsuzluğun Kapısında


Film Fragmanı


Film Detayları

Mini 720P İndir


Uptobox ile indir

1Fichier ile indir

1Fichier'den İndiremiyor musun? Tıklayın!


LetsUpload ile indir

Mega ile indir

MediaFire ile indir

Şuan Offine!
Şuan Offine!
Arif DEĞERCAN Süper Üye
***
Super Üye

  • Konular0
  • Mesajlar33
  • Rep puanı 0
Wink Big Grin Cool
Şuan Offine!
Şuan Offine!
mkacanjuly25 Yeni Üye
*
Üye

  • Konular0
  • Mesajlar2
  • Rep puanı 0
teşekrler


Konu ile Alakalı Benzer Konular
Konular Yazar Yorumlar Okunma Son Yorum
Filmin Yayınlanma Tarihi: 2020
Deathstroke Şövalyeler ve Ejderhalar (Deathstroke Knights & Dragons: The Movie) - 2020 - TR+ORG - 720P BroserBros 0 33 23-11-2020, Saat: 18:30
Son Yorum: BroserBros
Filmin Yayınlanma Tarihi: 2019
15 Dakika Savaş (L'intervention) - 2019 - TR+ORG - 720P BroserBros 0 36 23-11-2020, Saat: 17:42
Son Yorum: BroserBros
Filmin Yayınlanma Tarihi: 2020
Sürprizli Gece (The Sleepover) - 2020 - TR+ORG - 720P BroserBros 0 36 23-11-2020, Saat: 16:19
Son Yorum: BroserBros
Filmin Yayınlanma Tarihi: 2020
Feride (Feride) - 2020 - TR+ORG - 720P BroserBros 0 56 22-11-2020, Saat: 20:23
Son Yorum: BroserBros
Filmin Yayınlanma Tarihi: 2019
Gel Babacığına (Come to Daddy) - 2019 - TR+ORG - 720P BroserBros 0 32 22-11-2020, Saat: 17:43
Son Yorum: BroserBros

Hızlı Menü: