Filmbol Forum Film İndir 720P v Vahşi Batı Hikâyeleri (The Ballad of Buster Scruggs) Türkçe Dublaj 720P İndir
Mega linklerinin şikayet edilmemesi için global erişime kapatıp sadece yorum yapanlara açıyoruz. Bu linkleri gizleme işlemini mecburen yapıyoruz ve yorum yapmanızın siteye değil size faydası vardır. Teşekürler yazmayı çok görüp, Random/Spam mesajlar atarak Mega linklerini açmaya çalışan kullanıcılara önce süresiz ban, devam ederse IP ban atacağız.
Filmbol'da moderatör olmak ister misiniz? Bizimle iletişime geçmek için tıklayın!
Vahşi Batı Hikâyeleri (The Ballad of Buster Scruggs) Türkçe Dublaj 720P İndir
BroserBros
Vahşi Batı Hikâyeleri (The Ballad of Buster Scruggs) Türkçe Dublaj 720P İndir
2
945
  • Derecelendirme: 0/5 - 0 oy
  • 1
  • 2
  • 3
  • 4
  • 5
Konuyu Okuyanlar:1 Ziyaretçi
Şuan Online!
Filmin Yayınlanma Tarihi: 2018 
WWW
Şuan Online!
BroserBros Kurucu Admin
*******
Admin




diller


[TR]

altyazilar


KISIM [Eklenebilir]

Video Format: Mkv


Matroska (.MKV)

Video Detay


MPEG-4, 1050Kbps, 1,01GB


Ses Kodek: AC3


Audio Coding 3 (AC3)

Ses Detay


384 Kbps, 6 Kanal, 366Mb


Genislik Yukseklik


1280-682





Vahşi Batı Hikâyeleri


Film Detayları

Western türündeki filmde altı farklı öykü konu ediliyor. Vahşi Batı hakkındaki birbirinden farklı 6 öykü, İç Savaş’ın son zamanlarında yaşanan olayları ele alıyor. Yönetmen koltuğunda Joel & Ethan Coennam-ı diğer Coen Kardeşlerin oturduğu filmin kadrosunda James Franco, Liam Neeson, David Krumholtz, Brendan Gleeson, Zoe Kazan, Stephen Root gibi isimler yer alıyor.

Vahşi Batı Hikâyeleri (The Ballad of Buster Scruggs) Filmi Imdb'den 100,000 kişi tarafından oylandı ve 7,3 puan aldı. Bu film için editör puanı 7,5 olarak belirlendi. İyi Seyirler!


Teknik Detaylar


Kod :
General
Complete name                            : Vahşi.Batı.Hikayeleri.2018.720P.NF.WEBRip.x264.TR.Filmbol.mkv
Format                                   : Matroska
Format version                           : Version 4 / Version 2
File size                                : 1.34 GiB
Duration                                 : 2h 13mn
Overall bit rate                         : 1 436 Kbps
Movie name                               : Vahşi Batı Hikayeleri (2018) - Filmbol.org
Encoded date                             : UTC 2019-12-20 03:50:28
Writing application                      : mkvmerge v35.0.0 ('All The Love In The World') 64-bit
Writing library                          : libebml v1.3.9 + libmatroska v1.5.2

Video
ID                                       : 1
Format                                   : AVC
Format/Info                              : Advanced Video Codec
Format profile                           : [email protected]
Format settings, CABAC                   : Yes
Format settings, ReFrames                : 4 frames
Codec ID                                 : V_MPEG4/ISO/AVC
Duration                                 : 2h 13mn
Bit rate                                 : 1 050 Kbps
Width                                    : 1 280 pixels
Height                                   : 682 pixels
Display aspect ratio                     : 1.85:1
Frame rate mode                          : Constant
Frame rate                               : 23.976 (24000/1001) fps
Color space                              : YUV
Chroma subsampling                       : 4:2:0
Bit depth                                : 8 bits
Scan type                                : Progressive
Bits/(Pixel*Frame)                       : 0.050
Stream size                              : 1 001 MiB (73%)
Title                                    : 720P - Filmbol.org
Writing library                          : x264 core 157
Default                                  : Yes
Forced                                   : No

Audio
ID                                       : 2
Format                                   : AC-3
Format/Info                              : Audio Coding 3
Mode extension                           : CM (complete main)
Format settings, Endianness              : Big
Codec ID                                 : A_AC3
Duration                                 : 2h 13mn
Bit rate mode                            : Constant
Bit rate                                 : 384 Kbps
Channel(s)                               : 6 channels
Channel positions                        : Front: L C R, Side: L R, LFE
Sampling rate                            : 48.0 KHz
Frame rate                               : 31.250 fps (1536 spf)
Compression mode                         : Lossy
Stream size                              : 366 MiB (27%)
Title                                    : Türkçe - Filmbol.org
Language                                 : Turkish
Default                                  : Yes
Forced                                   : No

Text
ID                                       : 3
Format                                   : UTF-8
Codec ID                                 : S_TEXT/UTF8
Codec ID/Info                            : UTF-8 Plain Text
Duration                                 : 2h 12mn
Bit rate                                 : 6 bps
Count of elements                        : 167
Stream size                              : 6.08 KiB (0%)
Title                                    : KISIM
Language                                 : Turkish
Default                                  : Yes
Forced                                   : Yes

Film Detayları


Vahşi Batı Hikâyeleri

Vahşi Batı Hikâyeleri

Vahşi Batı Hikâyeleri


Film Fragmanı


Film Detayları

Mini 720P İndir



Uptobox ile indir

1Fichier ile indir

1Fichier'den İndiremiyor musun? Tıklayın!


MediaFire ile indir

Şuan Online!
Şuan Online!
Yusuf Selahattin Uzman Üye
**
Uzman Üye

  • Konular0
  • Mesajlar18
  • Rep puanı 0
Teşekkürler
Şuan Offine!
Şuan Offine!
agresif Uzman Üye
**
Uzman Üye

  • Konular0
  • Mesajlar20
  • Rep puanı 0
teşekkürler


Konu ile Alakalı Benzer Konular
Konular Yazar Yorumlar Okunma Son Yorum
Filmin Yayınlanma Tarihi: 2017
The Babysitter (The Babysitte) - 2017 - TR+ORG - 720P | tt4225622 TheSteeL 0 13 3 saat önce
Son Yorum: TheSteeL
Filmin Yayınlanma Tarihi: 2020
Bebek Bakıcısı: Katil Kraliçe (The Babysitter: Killer Queen) - 2020 - TR+ORG - 720P | tt11024272 TheSteeL 0 13 3 saat önce
Son Yorum: TheSteeL
Filmin Yayınlanma Tarihi: 1994
Sevginin Gücü (Léon: The Professional) - 1994 - TR+ORG - 720P | tt0110413 BroserBros 1 287 9 saat önce
Son Yorum: BroserBros
Filmin Yayınlanma Tarihi: 2015
Ters Yüz (Inside Out) Türkçe Dublaj 720P İndir BroserBros 8 6,936 9 saat önce
Son Yorum: serious
Filmin Yayınlanma Tarihi: 2019
Bir Şans Daha (Last Christmas) - 2019 - TR+ORG - 720P | tt8623904 BroserBros 1 302 9 saat önce
Son Yorum: BroserBros

Hızlı Menü: