Filmbol Forum Film İndir 1080P v Vahşi Batı Hikâyeleri (The Ballad of Buster Scruggs) Türkçe Dublaj 1080P İndir
Filmbol'da moderatör olmak ister misiniz? Bizimle iletişime geçmek için tıklayın!
Vahşi Batı Hikâyeleri (The Ballad of Buster Scruggs) Türkçe Dublaj 1080P İndir
BroserBros
Vahşi Batı Hikâyeleri (The Ballad of Buster Scruggs) Türkçe Dublaj 1080P İndir
5
1053
  • Derecelendirme: 0/5 - 0 oy
  • 1
  • 2
  • 3
  • 4
  • 5
Konuyu Okuyanlar:2 Ziyaretçi
Şuan Online!
Filmin Yayınlanma Tarihi: 2018 
Şuan Online!
BroserBros Kurucu Admin
*******
Admin

indirme türü


Bulut + Premium

Vizyon Tarihi


09 Kasım 2018

Boyutlar


2,18

diller


[TR]

altyazilar


KISIM [Eklenebilir]

Video Format: Mkv


Matroska (.MKV)

Video Detay


MPEG-4, 1955Kbps, 1,82GB

imdb puanı


7,3 / 10,0 / 100,000

süre


133 dakika

Ses Kodek: AC3


Audio Coding 3 (AC3)

Ses Detay


384 Kbps, 6 Kanal, 366Mb

Editör Puanı


7,5

Genislik Yukseklik


1920-1080

sürüm


x264 | 1080P (NF,WEBDL)




Vahşi Batı Hikâyeleri


Film Detayları

Western türündeki filmde altı farklı öykü konu ediliyor. Vahşi Batı hakkındaki birbirinden farklı 6 öykü, İç Savaş’ın son zamanlarında yaşanan olayları ele alıyor. Yönetmen koltuğunda Joel & Ethan Coennam-ı diğer Coen Kardeşlerin oturduğu filmin kadrosunda James Franco, Liam Neeson, David Krumholtz, Brendan Gleeson, Zoe Kazan, Stephen Root gibi isimler yer alıyor.

Vahşi Batı Hikâyeleri (The Ballad of Buster Scruggs) Filmi Imdb'den 100,000 kişi tarafından oylandı ve 7,3 puan aldı. Bu film için editör puanı 7,5 olarak belirlendi. İyi Seyirler!


Teknik Detaylar


Kod :
General
Complete name                            : Vahşi.Batı.Hikayeleri.2018.1080P.NF.WEBRip.x264.TR.Filmbol.mkv
Format                                   : Matroska
Format version                           : Version 4 / Version 2
File size                                : 2.18 GiB
Duration                                 : 2h 13mn
Overall bit rate                         : 2 341 Kbps
Movie name                               : Vahşi Batı Hikayeleri (2018) - Filmbol.org
Encoded date                             : UTC 2019-12-20 03:49:14
Writing application                      : mkvmerge v35.0.0 ('All The Love In The World') 64-bit
Writing library                          : libebml v1.3.9 + libmatroska v1.5.2

Video
ID                                       : 1
Format                                   : AVC
Format/Info                              : Advanced Video Codec
Format profile                           : Main@L4
Format settings, CABAC                   : Yes
Format settings, ReFrames                : 2 frames
Codec ID                                 : V_MPEG4/ISO/AVC
Duration                                 : 2h 13mn
Bit rate                                 : 1 955 Kbps
Width                                    : 1 920 pixels
Height                                   : 1 080 pixels
Display aspect ratio                     : 16:9
Frame rate mode                          : Constant
Frame rate                               : 23.976 (24000/1001) fps
Color space                              : YUV
Chroma subsampling                       : 4:2:0
Bit depth                                : 8 bits
Scan type                                : Progressive
Bits/(Pixel*Frame)                       : 0.039
Stream size                              : 1.82 GiB (84%)
Title                                    : 1080P - Filmbol.org
Language                                 : English
Default                                  : Yes
Forced                                   : No

Audio
ID                                       : 2
Format                                   : AC-3
Format/Info                              : Audio Coding 3
Mode extension                           : CM (complete main)
Format settings, Endianness              : Big
Codec ID                                 : A_AC3
Duration                                 : 2h 13mn
Bit rate mode                            : Constant
Bit rate                                 : 384 Kbps
Channel(s)                               : 6 channels
Channel positions                        : Front: L C R, Side: L R, LFE
Sampling rate                            : 48.0 KHz
Frame rate                               : 31.250 fps (1536 spf)
Compression mode                         : Lossy
Stream size                              : 366 MiB (16%)
Title                                    : Türkçe - Filmbol.org
Language                                 : Turkish
Default                                  : Yes
Forced                                   : No

Text
ID                                       : 3
Format                                   : UTF-8
Codec ID                                 : S_TEXT/UTF8
Codec ID/Info                            : UTF-8 Plain Text
Duration                                 : 2h 12mn
Bit rate                                 : 6 bps
Count of elements                        : 167
Stream size                              : 6.08 KiB (0%)
Title                                    : KISIM
Language                                 : Turkish
Default                                  : Yes
Forced                                   : Yes

Film Detayları


Vahşi Batı Hikâyeleri

Vahşi Batı Hikâyeleri

Vahşi Batı Hikâyeleri


Film Fragmanı


Film Detayları

Mini 1080P İndir



Uptobox ile indir

1Fichier ile indir

1Fichier'den İndiremiyor musun? Tıklayın!


Mega ile indir

MediaFire ile indir

Şuan Offine!
Şuan Offine!
Murat94 Süper Üye
***
Super Üye

  • Konular0
  • Mesajlar36
  • Rep puanı 0
Güzel
Şuan Offine!
Şuan Offine!
atunga55 Yeni Üye
*
Üye

  • Konular0
  • Mesajlar4
  • Rep puanı 0
teşekkürler
Şuan Offine!
Şuan Offine!
musti79 Uzman Üye
**
Uzman Üye

  • Konular0
  • Mesajlar16
  • Rep puanı 0
Paylaşım için teşekkürler...
Şuan Offine!
Şuan Offine!
Polatemirhan Süper Üye
***
Super Üye

  • Konular0
  • Mesajlar26
  • Rep puanı 0
teşekkürler
Şuan Offine!
Şuan Offine!
AliSavci Uzman Üye
**
Uzman Üye

  • Konular0
  • Mesajlar15
  • Rep puanı 0
Teşekürler


Konu ile Alakalı Benzer Konular
Konular Yazar Yorumlar Okunma Son Yorum
Filmin Yayınlanma Tarihi: 2020
Deathstroke Şövalyeler ve Ejderhalar (Deathstroke Knights & Dragons: The Movie) - 2020 - TR+ORG - 1080P BroserBros 0 32 23-11-2020, Saat: 18:31
Son Yorum: BroserBros
Filmin Yayınlanma Tarihi: 2019
15 Dakika Savaş (L'intervention) - 2019 - TR+ORG - 1080P BroserBros 0 34 23-11-2020, Saat: 17:42
Son Yorum: BroserBros
Filmin Yayınlanma Tarihi: 2020
Sürprizli Gece (The Sleepover) - 2020 - TR+ORG - 1080P BroserBros 0 35 23-11-2020, Saat: 16:19
Son Yorum: BroserBros
Filmin Yayınlanma Tarihi: 2020
Feride (Feride) - 2020 - TR+ORG - 1080P BroserBros 0 66 22-11-2020, Saat: 20:24
Son Yorum: BroserBros
Filmin Yayınlanma Tarihi: 2019
Gel Babacığına (Come to Daddy) - 2019 - TR+ORG - 1080P BroserBros 0 34 22-11-2020, Saat: 17:43
Son Yorum: BroserBros

Hızlı Menü: