Filmbol Forum Film İndir BRRip XviD v Uzaydan Gelen Fırtına (Geostorm) - 2017 - TR - BRRip XviD
Moderatör Alımları Başladı! Başvuru yapmak için tıklayın.
Filmbol Premium'da %50'e varan indirim fırsatı!
Uzaydan Gelen Fırtına (Geostorm) - 2017 - TR - BRRip XviD
BroserBros
Uzaydan Gelen Fırtına (Geostorm) - 2017 - TR - BRRip XviD
0
128
  • Derecelendirme: 0/5 - 0 oy
  • 1
  • 2
  • 3
  • 4
  • 5
Konuyu Okuyanlar:1 Ziyaretçi
Şuan Offine!
Filmin Yayınlanma Tarihi: 2017 
Şuan Offine!
BroserBros Kurucu Admin
*******
Admin

Vizyon Tarihi


20 Ocak 2017

imdb puanı


5,3 / 90,000

süre


109 dakika

Editör Puanı


5,8 / 10

Video Format: Avi


Audio Video Interleave (.AVI)

Ses Kodek: MP3


MPEG-1 Audio Layer III (MP3)

sürüm


h263 | BRRip XviD

Boyutlar


1,19 GB



 Uzaydan Gelen Fırtına



Daha önce görülmemiş felaketler baş göstermeye başlamıştır. Buna bir çözüm bulunmadığı taktirde, dünyanın sonu gelmek üzeredir. Üstelik bu durum tamamen insan elinden kaynaklanır ve çözümünü de ancak insanlar yapabilecektir...

Uzaydan Gelen Fırtına (2017) (Geostorm) Filmi Imdb'den 90,000 kişi tarafından oylandı ve 5,3 puan aldı. Bu film için editör puanı 5,8 olarak belirlendi. İyi Seyirler!

Teknik Detaylar

Kod :
General
Complete name                            : /root/Desktop/4/Uzaydan.Gelen.Fırtına.2017.BRRip.XviD.TR.Filmbol.avi
Format                                  : AVI
Format/Info                              : Audio Video Interleave
File size                                : 1.19 GiB
Duration                                : 1h 49mn
Overall bit rate                        : 1 564 Kbps
Writing application                      : VirtualDubMod 1.5.10.2 (build 2542/release)
Writing library                          : VirtualDubMod build 2542/release

Video
ID                                      : 0
Format                                  : MPEG-4 Visual
Format profile                          : Advanced Simple@L5
Format settings, BVOP                    : 2
Format settings, QPel                    : No
Format settings, GMC                    : No warppoints
Format settings, Matrix                  : Default (H.263)
Muxing mode                              : Packed bitstream
Codec ID                                : XVID
Codec ID/Hint                            : XviD
Duration                                : 1h 49mn
Bit rate                                : 1 426 Kbps
Width                                    : 720 pixels
Height                                  : 302 pixels
Display aspect ratio                    : 2.40:1
Frame rate                              : 23.976 fps
Color space                              : YUV
Chroma subsampling                      : 4:2:0
Bit depth                                : 8 bits
Scan type                                : Progressive
Compression mode                        : Lossy
Bits/(Pixel*Frame)                      : 0.274
Stream size                              : 1.09 GiB (91%)
Writing library                          : XviD 66

Audio
ID                                      : 1
Format                                  : MPEG Audio
Format version                          : Version 1
Format profile                          : Layer 3
Mode                                    : Joint stereo
Mode extension                          : MS Stereo
Codec ID                                : 55
Codec ID/Hint                            : MP3
Duration                                : 1h 49mn
Bit rate mode                            : Constant
Bit rate                                : 128 Kbps
Channel(s)                              : 2 channels
Sampling rate                            : 48.0 KHz
Compression mode                        : Lossy
Stream size                              : 99.9 MiB (8%)
Alignment                                : Split accross interleaves
Interleave, duration                    : 42 ms (1.00 video frame)
Interleave, preload duration            : 500 ms

Film Detayları


 Uzaydan Gelen Fırtına

 Uzaydan Gelen Fırtına

 Uzaydan Gelen Fırtına


Film Fragmanı


Film Detayları


Uptobox ile indir

1Fichier ile indir

1Fichier'den İndiremiyor musun? Tıklayın!


Mega ile indir

Bunun için üzgünüz ancak, bu linke sadece premium üyeler erişebilir.

Filmbol Cloud



Konu ile Alakalı Benzer Konular
Konular Yazar Yorumlar Okunma Son Yorum
Filmin Yayınlanma Tarihi: 2014
Yarının Sınırında (Edge of Tomorrow) - 2014 - TR - BRRip XviD BroserBros 1 141 20-10-2020, Saat: 15:13
Son Yorum: sectechno
Filmin Yayınlanma Tarihi: 2020
Holly Slept Over (Holly Slept Over) - 2020 - TR - BRRip XviD BroserBros 0 455 08-10-2020, Saat: 20:08
Son Yorum: BroserBros
Filmin Yayınlanma Tarihi: 2019
Rahat Kız (An Easy Girl) - 2019 - TR - BRRip XviD BroserBros 0 470 08-10-2020, Saat: 19:34
Son Yorum: BroserBros
Filmin Yayınlanma Tarihi: 2020
Mavi Korku 3 (Deep Blue Sea 3) - 2020 - TR - BRRip XviD BroserBros 0 557 03-10-2020, Saat: 21:11
Son Yorum: BroserBros
Filmin Yayınlanma Tarihi: 2018
Fast Color: Gücünü Serbest Bırak (Fast Color) - 2018 - TR - BRRip XviD BroserBros 0 133 03-10-2020, Saat: 16:46
Son Yorum: BroserBros

Hızlı Menü: