Filmbol Forum Film İndir 1080P v Uzay Yolcuları (Passengers) - 2016 - TR+ORG - 1080P
Moderatör Alımları Başladı! Başvuru yapmak için tıklayın.
Filmbol Premium'da %50'e varan indirim fırsatı!
Uzay Yolcuları (Passengers) - 2016 - TR+ORG - 1080P
BroserBros
Uzay Yolcuları (Passengers) - 2016 - TR+ORG - 1080P
0
105
  • Derecelendirme: 0/5 - 0 oy
  • 1
  • 2
  • 3
  • 4
  • 5
Konuyu Okuyanlar:1 Ziyaretçi
Şuan Online!
Filmin Yayınlanma Tarihi: 2016 
Şuan Online!
BroserBros Kurucu Admin
*******
Admin

Vizyon Tarihi


13 Ocak 2017

imdb puanı


7,0 / 340,000

süre


116 dakika

Editör Puanı


7,3 / 10

Video Format: Mkv


Matroska (.MKV)

Ses Kodek: AC3


Audio Coding 3 (AC3)

sürüm


x264 | 1080P | BluRay

Boyutlar


2,30 GB



 Uzay Yolcuları



Çok yüksek hızlarda yıldızlar arası seyahet eden bir uzay gemisinin hedefinde 150 yıllık bir yolculuktan sonra yeni dünya adayı bir gezegene varmaktır. Gemi çok gelişmiştir ve herhangi bir insan yönetimine ihtiyaç duymadan yolculuğu tamamlayacaktır ve insanlarda bu süreç içersinde derin uykuya yatırılacaktır. Her şey iyi giderken aşırı yüklenme bir hataya yol açar ve Jim Preston yolculuğa 100 yıl kala uyandırılır ve olaylar gelişir...

Uzay Yolcuları (2016) (Passengers) Filmi Imdb'den 340,000 kişi tarafından oylandı ve 7,0 puan aldı. Bu film için editör puanı 7,3 olarak belirlendi. İyi Seyirler!

Teknik Detaylar

Kod :
General
Unique ID                                : 209812651704424968044262321602875199763 (0x9DD872659B214A85E62322B79E799113)
Complete name                            : /root/Desktop/1/Uzay.Yolcuları.2016.1080p.BluRay.x264.TR.ENG.Filmbol.mkv
Format                                  : Matroska
Format version                          : Version 4 / Version 2
File size                                : 2.30 GiB
Duration                                : 1h 56mn
Overall bit rate                        : 2 832 Kbps
Movie name                              : Passengers - Uzay Yolcuları - 2016 | Filmbol.org
Encoded date                            : UTC 2020-05-12 11:48:44
Writing application                      : mkvmerge v8.8.0 ('Wind at my back') 64bit
Writing library                          : libebml v1.3.3 + libmatroska v1.4.4

Video
ID                                      : 1
Format                                  : AVC
Format/Info                              : Advanced Video Codec
Format profile                          : High@L4.1
Format settings, CABAC                  : Yes
Format settings, ReFrames                : 4 frames
Codec ID                                : V_MPEG4/ISO/AVC
Duration                                : 1h 56mn
Bit rate                                : 2 050 Kbps
Width                                    : 1 920 pixels
Height                                  : 800 pixels
Display aspect ratio                    : 2.40:1
Frame rate mode                          : Constant
Frame rate                              : 23.976 fps
Color space                              : YUV
Chroma subsampling                      : 4:2:0
Bit depth                                : 8 bits
Scan type                                : Progressive
Bits/(Pixel*Frame)                      : 0.056
Stream size                              : 1.66 GiB (72%)
Title                                    : Filmbol.org
Writing library                          : x264 core 148
Encoding settings                        : cabac=1 / ref=4 / deblock=1:-1:-1 / analyse=0x3:0x133 / me=umh / subme=9 / psy=1 / psy_rd=1.00:0.15 / mixed_ref=1 / me_range=24 / chroma_me=1 / trellis=2 / 8x8dct=1 / cqm=0 / deadzone=21,11 / fast_pskip=0 / chroma_qp_offset=-3 / threads=12 / lookahead_threads=1 / sliced_threads=0 / nr=0 / decimate=1 / interlaced=0 / bluray_compat=0 / constrained_intra=0 / bframes=3 / b_pyramid=2 / b_adapt=2 / b_bias=0 / direct=3 / weightb=1 / open_gop=0 / weightp=2 / keyint=250 / keyint_min=23 / scenecut=40 / intra_refresh=0 / rc_lookahead=60 / rc=2pass / mbtree=1 / bitrate=2050 / ratetol=1.0 / qcomp=0.60 / qpmin=0 / qpmax=69 / qpstep=4 / cplxblur=20.0 / qblur=0.5 / vbv_maxrate=31250 / vbv_bufsize=31250 / nal_hrd=none / filler=0 / ip_ratio=1.40 / aq=1:1.00
Default                                  : Yes
Forced                                  : No

Audio #1
ID                                      : 2
Format                                  : AAC
Format/Info                              : Advanced Audio Codec
Format profile                          : LC
Codec ID                                : A_AAC
Duration                                : 1h 56mn
Bit rate                                : 122 Kbps
Channel(s)                              : 2 channels
Channel positions                        : Front: L R
Sampling rate                            : 48.0 KHz
Frame rate                              : 46.875 fps (1024 spf)
Compression mode                        : Lossy
Stream size                              : 102 MiB (4%)
Title                                    : İngilizce
Language                                : English
Default                                  : No
Forced                                  : No

Audio #2
ID                                      : 3
Format                                  : AC-3
Format/Info                              : Audio Coding 3
Mode extension                          : CM (complete main)
Format settings, Endianness              : Big
Codec ID                                : A_AC3
Duration                                : 1h 56mn
Bit rate mode                            : Constant
Bit rate                                : 640 Kbps
Channel(s)                              : 6 channels
Channel positions                        : Front: L C R, Side: L R, LFE
Sampling rate                            : 48.0 KHz
Frame rate                              : 31.250 fps (1536 spf)
Compression mode                        : Lossy
Stream size                              : 532 MiB (23%)
Title                                    : Türkçe
Language                                : Turkish
Default                                  : Yes
Forced                                  : Yes

Text
ID                                      : 4
Format                                  : PGS
Muxing mode                              : zlib
Codec ID                                : S_HDMV/PGS
Codec ID/Info                            : Picture based subtitle format used on BDs/HD-DVDs
Duration                                : 1h 54mn
Bit rate                                : 17.2 Kbps
Count of elements                        : 2398
Stream size                              : 14.1 MiB (1%)
Title                                    : Altyazı
Default                                  : Yes
Forced                                  : Yes

Film Detayları


 Uzay Yolcuları

 Uzay Yolcuları

 Uzay Yolcuları


Film Fragmanı


Film Detayları

Uptobox ile indir

1Fichier ile indir

1Fichier'den İndiremiyor musun? Tıklayın!


Mega ile indir

Bunun için üzgünüz ancak, bu linke sadece premium üyeler erişebilir.

Filmbol Cloud



Konu ile Alakalı Benzer Konular
Konular Yazar Yorumlar Okunma Son Yorum
Filmin Yayınlanma Tarihi: 2018
Mogli: Orman Çocuğu (Mowgli) Türkçe Dublaj BLURAY 1080P İndir BroserBros 10 845 19-09-2020, Saat: 13:11
Son Yorum: Rocklion17
Filmin Yayınlanma Tarihi: 2020
The Hunt (Av) - 2020 - TR+ORG - 1080P BroserBros 0 316 18-09-2020, Saat: 19:28
Son Yorum: BroserBros
Filmin Yayınlanma Tarihi: 2018
Gözbebeğim (Pupille) - 2018 - TR+ORG - 1080P BroserBros 0 323 18-09-2020, Saat: 13:02
Son Yorum: BroserBros
Filmin Yayınlanma Tarihi: 2019
Umut Vadisi (Hope Gap) - 2019 - TR+ORG - 1080P BroserBros 0 319 18-09-2020, Saat: 12:52
Son Yorum: BroserBros
Filmin Yayınlanma Tarihi: 2020
Görünmez Adam (The Invisible Man) - 2020 - TR+ORG - 1080P BroserBros 1 143 16-09-2020, Saat: 20:10
Son Yorum: berkangungor

Hızlı Menü: