Filmbol Forum Film İndir BRRip XviD v Utanç (Shame) Türkçe Dublaj BRRip XviD indir
Mega linklerinin şikayet edilmemesi için global erişime kapatıp sadece yorum yapanlara açıyoruz. Bu linkleri gizleme işlemini mecburen yapıyoruz ve yorum yapmanızın siteye değil size faydası vardır. Teşekürler yazmayı çok görüp, Random/Spam mesajlar atarak Mega linklerini açmaya çalışan kullanıcılara önce süresiz ban, devam ederse IP ban atacağız.
Filmbol'da moderatör olmak ister misiniz? Bizimle iletişime geçmek için tıklayın!
Utanç (Shame) Türkçe Dublaj BRRip XviD indir
BroserBros
Utanç (Shame) Türkçe Dublaj BRRip XviD indir
2
384
  • Derecelendirme: 0/5 - 0 oy
  • 1
  • 2
  • 3
  • 4
  • 5
Konuyu Okuyanlar:1 Ziyaretçi
Şuan Online!
Filmin Yayınlanma Tarihi: 2019 
WWW
Şuan Online!
BroserBros Kurucu Admin
*******
Admin








 Utanç



Brandon 30'lu yaşlarında New York'ta yaşayan, kelimenin gerçek anlamıyla seks bağımlısı bir adamdır. Fakat asi kız kardeşi onun yanına taşınınca Brandon'ın hayatı da beklenmedik biçimde değişecektir. Zira kız kardeşi Sissy (Carey Mulligan) ikisinin de geçmişinden gelen acı dolu hatıraları da beraberinde getirecektir...
Toronto Film Festivali'nde görücüye çıkan Utanç/Shame, cinselliğin merkezde olduğu bir New York draması olarak niteleniyor. Ses getiren Açlık (Hunger) filmiyle tanıdığımız ve son dönemlerin gözde yapımlarında yer alan Michael Fassbender'ın başrolü canlandırdığı yapım İngiliz sinemacı Steve McQueen'in hem senaryoyu hem de yönetmenliği üstlendiği henüz ikinci film...
Amerika'da 2 Aralık'ta gösterime girecek filmin yurt dışındaki eleştirileri şimdiye kadar oldukça olumlu ve yüksek seyrediyor. Film 2011 Filmekimi kapsamında ülkemiz seyircileriyle de buluşmuştu.

Utanç (2011) (Shame) Filmi Imdb'den 180,000 kişi tarafından oylandı ve 7,2 puan aldı. Bu film için editör puanı 7,5 olarak belirlendi. İyi Seyirler!

Teknik Detaylar

Kod :
General
Complete name                            : /root/Desktop/3/Utanç.2011.TR.BRRip.XviD.Filmbol.avi
Format                                   : AVI
Format/Info                              : Audio Video Interleave
File size                                : 693 MiB
Duration                                 : 1h 41mn
Overall bit rate                         : 958 Kbps

Video
ID                                       : 0
Format                                   : MPEG-4 Visual
Format profile                           : Advanced [email protected]
Format settings, BVOP                    : 3
Format settings, QPel                    : No
Format settings, GMC                     : No warppoints
Format settings, Matrix                  : Default (MPEG)
Codec ID                                 : XVID
Codec ID/Hint                            : XviD
Duration                                 : 1h 41mn
Bit rate                                 : 818 Kbps
Width                                    : 656 pixels
Height                                   : 272 pixels
Display aspect ratio                     : 2.40:1
Frame rate                               : 23.976 (24000/1001) fps
Color space                              : YUV
Chroma subsampling                       : 4:2:0
Bit depth                                : 8 bits
Scan type                                : Progressive
Compression mode                         : Lossy
Bits/(Pixel*Frame)                       : 0.191
Stream size                              : 592 MiB (85%)
Writing library                          : XviD 1.2.1 (UTC 2008-12-04)

Audio
ID                                       : 1
Format                                   : MPEG Audio
Format version                           : Version 1
Format profile                           : Layer 3
Codec ID                                 : 55
Codec ID/Hint                            : MP3
Duration                                 : 1h 40mn
Bit rate mode                            : Constant
Bit rate                                 : 128 Kbps
Channel(s)                               : 2 channels
Sampling rate                            : 48.0 KHz
Compression mode                         : Lossy
Stream size                              : 92.2 MiB (13%)
Alignment                                : Aligned on interleaves
Interleave, duration                     : 24 ms (0.58 video frame)
Writing library                          : LAME3.96

Film Detayları


 Utanç

 Utanç

 Utanç


Film Fragmanı


Film Detayları

Brrip İndir

Uptobox ile indir

1Fichier ile indir

1Fichier'den İndiremiyor musun? Tıklayın!


Mega linki şuan da gizli. Kullanıma açmak için konuya yorum yapın ve ardından sayfayı yenileyin.

Mega


MediaFire ile indir

Şuan Offine!
Şuan Offine!
filmbolcu Süper Üye
***
Super Üye

  • Konular12
  • Mesajlar33
  • Rep puanı 2
İstek bölümünde gördüm; bakalım nasıl bir filmmiş. Paylaşım için teşekkürler.
Şuan Offine!
Şuan Offine!
sectechno Premium Üye
****

  • Konular10
  • Mesajlar96
  • Rep puanı 20
Teşekkürler.İyi çalışmalar.


Konu ile Alakalı Benzer Konular
Konular Yazar Yorumlar Okunma Son Yorum
  Her Zaman Şeytan (The Devil All the Time) - 2020 - TR - BRRip XviD | tt7395114 TheSteeL 0 23 10 saat önce
Son Yorum: TheSteeL
Filmin Yayınlanma Tarihi: 2020
Baba Aranıyor (Se busca papá) - 2020 - TR - BRRip XviD | tt12721188 TheSteeL 0 20 11 saat önce
Son Yorum: TheSteeL
Filmin Yayınlanma Tarihi: 1999
Yeşil Yol (The Green Mile) - 1999 - TR - BRRip XviD | tt0120689 BroserBros 2 246 , Saat: 15:54
Son Yorum: Furkan61
Filmin Yayınlanma Tarihi: 2019
Beyaz Kentin Sessizliği (El silencio de la ciudad blanca) - 2019 - TR - BRRip XviD | tt8393332 BroserBros 1 245 , Saat: 15:38
Son Yorum: BroserBros
Filmin Yayınlanma Tarihi: 2014
Frankenstein: Ölümsüzlerin Savaşı (I, Frankenstein) - 2014 - TR - BRRip XviD | tt1418377 BroserBros 2 296 , Saat: 15:29
Son Yorum: BroserBros

Hızlı Menü: