Filmbol Forum Film İndir 1080P v Uslu Çocuklar (Good Boys) Türkçe Dublaj BLURAY 1080P İndir
Filmbol'da moderatör olmak ister misiniz? Bizimle iletişime geçmek için tıklayın!
Uslu Çocuklar (Good Boys) Türkçe Dublaj BLURAY 1080P İndir
BroserBros
Uslu Çocuklar (Good Boys) Türkçe Dublaj BLURAY 1080P İndir
0
231
  • Derecelendirme: 0/5 - 0 oy
  • 1
  • 2
  • 3
  • 4
  • 5
Konuyu Okuyanlar:1 Ziyaretçi
Şuan Online!
Filmin Yayınlanma Tarihi: 2019 
Şuan Online!
BroserBros Kurucu Admin
*******
Admin

indirme türü


Bulut + Premium

Vizyon Tarihi


06 Eylül 2019

Boyutlar


1,56

diller


[TR]

altyazilar


KISIM [Eklenebilir]

Video Format: Mkv


Matroska (.MKV)

Video Detay


MPEG-4, 2100 Kbps, 1,31GB

imdb puanı


6,7 / 10,0 / 33,000

süre


90 dakika

Ses Kodek: AC3


Audio Coding 3 (AC3)

Ses Detay


384Kbps, 6 Kanal, 246Mb

Editör Puanı


6,5

Genislik Yukseklik


1920-800

sürüm


x264 | 1080P




Uslu Çocuklar


Film Detayları

Uslu Çocuklar, 12 yaşındaki dört erkek çocuğunun okulu ekip, gün boyu sürecek komedi dolu bir maceraya atılmasını konu alıyor. Max, 12 yaşında bir çocuktur. Sınıf arkadaşlarının hazırladığı öpüşme partisine davet edilen Max, nasıl öpüşüleceğini bilemediği için oldukça panik haldedir. Bu duruma bir çözüm bulmak isteyen Max, yakın arkadaşları Thor ve Lucas birlikte bir plan yapar. Sevişen genç komşularını izlemeyi planlayan gençler, bunun için Max’in kullanılmasına izin verilmeyen babasına ait olan drone’u alırlar. İşleri bitince drone’u kimse fark etmeden yerine koymayı planlayan gençleri işleri pek de düşündükleri gibi gitmez. İşlerin kontrolünden çıkması ile drone imha edilince, üç arkadaş Max’in babası eve gelmeden önce drone’u yerine koyabilmek için okula ekip zorlu bir maceraya atılır.

Uslu Çocuklar (Good Boys) Filmi Imdb'den 33,000 kişi tarafından oylandı ve 6,7 puan aldı. Bu film için editör puanı 6,5 olarak belirlendi. İyi Seyirler!


Teknik Detaylar


Kod :
General
Complete name                            : Uslu.Çocuklar.2018.1080p.BLURAY.x264.TR.Filmbol.mkv
Format                                   : Matroska
Format version                           : Version 4 / Version 2
File size                                : 1.56 GiB
Duration                                 : 1h 29mn
Overall bit rate                         : 2 486 Kbps
Movie name                               : Uslu Çocuklar (2019) - Filmbol.org
Encoded date                             : UTC 2019-12-18 03:12:48
Writing application                      : mkvmerge v35.0.0 ('All The Love In The World') 64-bit
Writing library                          : libebml v1.3.9 + libmatroska v1.5.2

Video
ID                                       : 1
Format                                   : AVC
Format/Info                              : Advanced Video Codec
Format profile                           : High@L4.1
Format settings, CABAC                   : Yes
Format settings, ReFrames                : 4 frames
Codec ID                                 : V_MPEG4/ISO/AVC
Duration                                 : 1h 29mn
Bit rate                                 : 2 100 Kbps
Width                                    : 1 920 pixels
Height                                   : 800 pixels
Display aspect ratio                     : 2.40:1
Frame rate mode                          : Constant
Frame rate                               : 23.976 (24000/1001) fps
Color space                              : YUV
Chroma subsampling                       : 4:2:0
Bit depth                                : 8 bits
Scan type                                : Progressive
Bits/(Pixel*Frame)                       : 0.057
Stream size                              : 1.31 GiB (84%)
Title                                    : 1080P - Filmbol.org
Writing library                          : x264 core 158
Default                                  : Yes
Forced                                   : No

Audio
ID                                       : 2
Format                                   : AC-3
Format/Info                              : Audio Coding 3
Mode extension                           : CM (complete main)
Format settings, Endianness              : Big
Codec ID                                 : A_AC3
Duration                                 : 1h 29mn
Bit rate mode                            : Constant
Bit rate                                 : 384 Kbps
Channel(s)                               : 6 channels
Channel positions                        : Front: L C R, Side: L R, LFE
Sampling rate                            : 48.0 KHz
Frame rate                               : 31.250 fps (1536 spf)
Compression mode                         : Lossy
Stream size                              : 246 MiB (15%)
Title                                    : Türkçe - Filmbol.org
Language                                 : Turkish
Default                                  : Yes
Forced                                   : No

Text
ID                                       : 3
Format                                   : UTF-8
Codec ID                                 : S_TEXT/UTF8
Codec ID/Info                            : UTF-8 Plain Text
Duration                                 : 1h 22mn
Bit rate                                 : 2 bps
Count of elements                        : 54
Stream size                              : 1.41 KiB (0%)
Title                                    : KISIM
Language                                 : Turkish
Default                                  : Yes
Forced                                   : Yes

Film Detayları


Uslu Çocuklar

Uslu Çocuklar

Uslu Çocuklar


Film Fragmanı


Film Detayları

Mini 1080P İndir



Uptobox ile indir

1Fichier ile indir

1Fichier'den İndiremiyor musun? Tıklayın!


LetsUpload ile indir

Mega ile indir

MediaFire ile indir



Konu ile Alakalı Benzer Konular
Konular Yazar Yorumlar Okunma Son Yorum
Filmin Yayınlanma Tarihi: 2019
Hain (The Traitor / Il traditore) - 2019 - TR+ORG - 1080P BroserBros 0 27 , Saat: 16:05
Son Yorum: BroserBros
Filmin Yayınlanma Tarihi: 2020
All Together Now (All Together Now) - 2020 - TR+ORG - 1080P BroserBros 0 21 , Saat: 15:49
Son Yorum: BroserBros
Filmin Yayınlanma Tarihi: 2019
Ibiza (Ibiza) - 2019 - TR+ORG - 1080P BroserBros 0 24 , Saat: 14:57
Son Yorum: BroserBros
Filmin Yayınlanma Tarihi: 2018
Yaramazlar Takımı: Zaman Yolcuları (Smeshariki. Dezha vyu) - 2018 - TR+ORG - 1080P BroserBros 0 33 25-11-2020, Saat: 17:59
Son Yorum: BroserBros
Filmin Yayınlanma Tarihi: 2018
Tutarsız Adam (Spinning Man) - 2018 - TR+ORG - 1080P BroserBros 0 29 25-11-2020, Saat: 17:27
Son Yorum: BroserBros

Hızlı Menü: