Filmbol Forum Film İndir 1080P v Tutsak (Bel Canto) Türkçe Dublaj BLURAY 1080P İndir
Filmbol'da moderatör olmak ister misiniz? Bizimle iletişime geçmek için tıklayın!
Tutsak (Bel Canto) Türkçe Dublaj BLURAY 1080P İndir
BroserBros
Tutsak (Bel Canto) Türkçe Dublaj BLURAY 1080P İndir
0
302
  • Derecelendirme: 0/5 - 0 oy
  • 1
  • 2
  • 3
  • 4
  • 5
Konuyu Okuyanlar:1 Ziyaretçi
Şuan Online!
Filmin Yayınlanma Tarihi: 2018 
Şuan Online!
BroserBros Kurucu Admin
*******
Admin

indirme türü


Bulut + Premium

Vizyon Tarihi


02 Kasım 2018

Boyutlar


1,65

diller


[TR]

altyazilar


Yok [Eklenebilir]

Video Format: Mkv


Matroska (.MKV)

Video Detay


MPEG-4, 2150Kbps, 1,52GB

imdb puanı


5,4 / 10,0 / 3,000

süre


100 dakika

Ses Kodek: AC3


Audio Coding 3 (AC3)

Ses Detay


192 Kbps, 2 Kanal, 139Mb

Editör Puanı


5,5

Genislik Yukseklik


1920-800

sürüm


x264 | 1080P




Tutsak


Film Detayları

Tutsak, Güney Amerika’da zengin bir iş adamının doğum gününe katılan ve burada rehin alınan ünlü opera sanatçısının hikayesini anlatıyor. Japon iş adamı Katsumi Hosokawa‘nın doğum günü için özel bir parti düzenlenmektedir. Amerika’nın ünlü sopranosu Roxane Coss’da partinin konukları arasındadır ve özel bir konser verecektir. Başkan yardımcısının evinde verilen partide başlarda her şey yolundadır. Fakat partinin sonlarına doğru bir grup terörist partiyi basar. General Benjamin tarafından tutuklanan yoldaşlarının serbest bırakılmasını isteyen teröristler evdeki herkesi rehin alır. Bir süre sonra rehine sayısındaki fazlalık teröristler için sorun olmaya başlar. İçlerinde Katsumi Hosokawa ve Roxane Coss’un da yer aldığı bir grup önemli kişi dışındakileri serbest bırakırlar. Hosokawa ve Coss bir ay sürecek bu zorlu bekleyiş sırasında birbirlerini yakından tanıma fırsatı bulur.

Tutsak (Bel Canto) Filmi Imdb'den 3,000 kişi tarafından oylandı ve 5,4 puan aldı. Bu film için editör puanı 5,5 olarak belirlendi. İyi Seyirler!


Teknik Detaylar


Kod :
General
Complete name                            : Tutsak.2018.1080p.BLURAY.x264.TR.Filmbol.mkv
Format                                   : Matroska
Format version                           : Version 4 / Version 2
File size                                : 1.65 GiB
Duration                                 : 1h 40mn
Overall bit rate                         : 2 343 Kbps
Movie name                               : Tutsak (2018) - Filmbol.org
Encoded date                             : UTC 2019-12-20 03:55:27
Writing application                      : mkvmerge v35.0.0 ('All The Love In The World') 64-bit
Writing library                          : libebml v1.3.9 + libmatroska v1.5.2

Video
ID                                       : 1
Format                                   : AVC
Format/Info                              : Advanced Video Codec
Format profile                           : High@L4.1
Format settings, CABAC                   : Yes
Format settings, ReFrames                : 4 frames
Codec ID                                 : V_MPEG4/ISO/AVC
Duration                                 : 1h 40mn
Bit rate                                 : 2 150 Kbps
Width                                    : 1 920 pixels
Height                                   : 800 pixels
Display aspect ratio                     : 2.40:1
Frame rate mode                          : Constant
Frame rate                               : 23.976 (24000/1001) fps
Color space                              : YUV
Chroma subsampling                       : 4:2:0
Bit depth                                : 8 bits
Scan type                                : Progressive
Bits/(Pixel*Frame)                       : 0.058
Stream size                              : 1.52 GiB (92%)
Title                                    : 1080P - Filmbol.org
Writing library                          : x264 core 157
Default                                  : Yes
Forced                                   : No

Audio
ID                                       : 2
Format                                   : AC-3
Format/Info                              : Audio Coding 3
Mode extension                           : CM (complete main)
Format settings, Endianness              : Big
Codec ID                                 : A_AC3
Duration                                 : 1h 40mn
Bit rate mode                            : Constant
Bit rate                                 : 192 Kbps
Channel(s)                               : 2 channels
Channel positions                        : Front: L R
Sampling rate                            : 48.0 KHz
Frame rate                               : 31.250 fps (1536 spf)
Compression mode                         : Lossy
Stream size                              : 139 MiB (8%)
Title                                    : Türkçe - Filmbol.org
Language                                 : Turkish
Default                                  : Yes
Forced                                   : No

Film Detayları


Tutsak

Tutsak

Tutsak


Film Fragmanı


Film Detayları

Mini 1080P İndir



Uptobox ile indir

1Fichier ile indir

1Fichier'den İndiremiyor musun? Tıklayın!


Mega ile indir

MediaFire ile indir



Konu ile Alakalı Benzer Konular
Konular Yazar Yorumlar Okunma Son Yorum
Filmin Yayınlanma Tarihi: 2020
Zengo (Zengo) - 2020 - TR+ORG - 1080P BroserBros 0 18 , Saat: 14:08
Son Yorum: BroserBros
Filmin Yayınlanma Tarihi: 2019
Hatıra (The Souvenir) - 2019 - TR+ORG - 1080P BroserBros 0 20 , Saat: 13:04
Son Yorum: BroserBros
Filmin Yayınlanma Tarihi: 2020
My Spy (My Spy) - 2020 - TR+ORG - 1080P BroserBros 0 20 , Saat: 12:54
Son Yorum: BroserBros
Filmin Yayınlanma Tarihi: 2019
Luce (Luce) - 2019 - TR+ORG - 1080P BroserBros 0 32 28-11-2020, Saat: 17:58
Son Yorum: BroserBros
Filmin Yayınlanma Tarihi: 2020
Aşka İnan (I Still Believe) - 2020 - TR+ORG - 1080P BroserBros 0 28 28-11-2020, Saat: 16:58
Son Yorum: BroserBros

Hızlı Menü: