Filmbol Forum Film İndir 720P v Transformers: Kayıp Çağ (Transformers: Age of Extinction) - 2014 - TR+ORG - 720P
Moderatör Alımları Başladı! Başvuru yapmak için tıklayın.
Filmbol Premium'da %50'e varan indirim fırsatı!
Transformers: Kayıp Çağ (Transformers: Age of Extinction) - 2014 - TR+ORG - 720P
BroserBros
Transformers: Kayıp Çağ (Transformers: Age of Extinction) - 2014 - TR+ORG - 720P
0
143
  • Derecelendirme: 0/5 - 0 oy
  • 1
  • 2
  • 3
  • 4
  • 5
Konuyu Okuyanlar:1 Ziyaretçi
Şuan Offine!
Filmin Yayınlanma Tarihi: 2014 
Şuan Offine!
BroserBros Kurucu Admin
*******
Admin

Vizyon Tarihi


27 Haziran 2014

imdb puanı


5,6 / 300,000

süre


165 dakika

Editör Puanı


7,2 / 10

Video Format: Mkv


Matroska (.MKV)

Ses Kodek: AC3


Audio Coding 3 (AC3)

sürüm


x264 | 720P | BluRay

Boyutlar


1,71 GB



 Transformers: Kayıp Çağ



Autobot ve Decepticon'lar arasında yaşanan son savaşın ardından dört yıl geçer. Savaşta Chicago şehri yerle bir edilmiş ve binlerce insan öldürülmüş olsa da dünya ve insanlık büyük bir tehditten kurtulmuş olur. İnsanlık yaralarını sarmaya çalışırken Amerikan hükümeti de Autobotlar ile arasındaki ilişkiye iyice koparmış, hatta hayatta kalanları yok etmeleri için CIA'de özel bir birim dahi kurulmuştur. Teksas'ta kendi halinde bir tamirci olan Cade Yeager, eline geçen hasarlı bir kamyoneti, parçalarını satma umuduyla kabul eder. Ne var ki bu kamyonetin yaralı bir Optimus Prime'dan başkası olmadığını anlaması uzun sürmez. Optimus Prime'dan aldıkları sinyallerle yola çıkan CIA ajanlarıyla başının derde girmesi de çok yakındır. Cade Yeager bir şekilde Optimus Prime'ı Chicago'ya ulaştırmak ve diğer Autobotlar ile iletişime geçmesini sağlamak zorundadır. Zira dünyayı tehdit eden güçlü bir düşman yola çıkmak üzeredir. Optimus Prime ve Autobotlar, Cade Yeager başta olmak üzere kendilerine destek olan insan topluluğunun yardımıyla başlarına gelen en korkutucu düşmanla yüzleşmek zorundadır...

Transformers: Kayıp Çağ (2014) (Transformers: Age of Extinction) Filmi Imdb'den 300,000 kişi tarafından oylandı ve 5,6 puan aldı. Bu film için editör puanı 7,2 olarak belirlendi. İyi Seyirler!

Teknik Detaylar

Kod :
General
Unique ID                                : 156637096818686117708423184377314441502 (0x75D7351FCD20AF720FF5BD196202791E)
Complete name                            : /root/Desktop/7/Transformers.Kayıp.Çağ.2014.720p.BluRay.x264.TR.ENG.Filmbol.mkv
Format                                  : Matroska
Format version                          : Version 4 / Version 2
File size                                : 1.71 GiB
Duration                                : 2h 45mn
Overall bit rate                        : 1 481 Kbps
Movie name                              : Transformers: Kayıp Çağ - Transformers: Age of Extinction - 2014 | Filmbol.org
Encoded date                            : UTC 2020-05-29 16:35:28
Writing application                      : mkvmerge v8.8.0 ('Wind at my back') 64bit
Writing library                          : libebml v1.3.3 + libmatroska v1.4.4

Video
ID                                      : 1
Format                                  : AVC
Format/Info                              : Advanced Video Codec
Format profile                          : High@L4.1
Format settings, CABAC                  : Yes
Format settings, ReFrames                : 4 frames
Codec ID                                : V_MPEG4/ISO/AVC
Duration                                : 2h 45mn
Bit rate                                : 745 Kbps
Width                                    : 1 280 pixels
Height                                  : 536 pixels
Display aspect ratio                    : 2.40:1
Frame rate mode                          : Constant
Frame rate                              : 23.976 (24000/1001) fps
Original frame rate                      : 23.976 (23976/1000) fps
Color space                              : YUV
Chroma subsampling                      : 4:2:0
Bit depth                                : 8 bits
Scan type                                : Progressive
Bits/(Pixel*Frame)                      : 0.045
Stream size                              : 880 MiB (50%)
Title                                    : 720P - Filmbol.org
Writing library                          : x264 core 142 r2409 d6b4e63
Encoding settings                        : cabac=1 / ref=4 / deblock=1:-1:-1 / analyse=0x3:0x133 / me=umh / subme=9 / psy=1 / psy_rd=1.00:0.15 / mixed_ref=1 / me_range=24 / chroma_me=1 / trellis=2 / 8x8dct=1 / cqm=0 / deadzone=21,11 / fast_pskip=0 / chroma_qp_offset=-3 / threads=60 / lookahead_threads=4 / sliced_threads=0 / nr=0 / decimate=1 / interlaced=0 / bluray_compat=0 / constrained_intra=0 / bframes=3 / b_pyramid=2 / b_adapt=2 / b_bias=0 / direct=3 / weightb=1 / open_gop=0 / weightp=2 / keyint=250 / keyint_min=23 / scenecut=40 / intra_refresh=0 / rc_lookahead=60 / rc=2pass / mbtree=1 / bitrate=745 / ratetol=1.0 / qcomp=0.60 / qpmin=0 / qpmax=69 / qpstep=4 / cplxblur=20.0 / qblur=0.5 / vbv_maxrate=31250 / vbv_bufsize=31250 / nal_hrd=none / filler=0 / ip_ratio=1.40 / aq=1:1.00
Default                                  : Yes
Forced                                  : No
Color range                              : Limited
Color primaries                          : BT.709
Matrix coefficients                      : BT.709

Audio #1
ID                                      : 2
Format                                  : AC-3
Format/Info                              : Audio Coding 3
Mode extension                          : CM (complete main)
Format settings, Endianness              : Big
Codec ID                                : A_AC3
Duration                                : 2h 45mn
Bit rate mode                            : Constant
Bit rate                                : 640 Kbps
Channel(s)                              : 6 channels
Channel positions                        : Front: L C R, Side: L R, LFE
Sampling rate                            : 48.0 KHz
Frame rate                              : 31.250 fps (1536 spf)
Compression mode                        : Lossy
Stream size                              : 756 MiB (43%)
Title                                    : Türkçe - Filmbol.org
Language                                : Turkish
Default                                  : Yes
Forced                                  : Yes

Audio #2
ID                                      : 3
Format                                  : AAC
Format/Info                              : Advanced Audio Codec
Format profile                          : LC
Codec ID                                : A_AAC
Duration                                : 2h 45mn
Bit rate                                : 93.7 Kbps
Channel(s)                              : 2 channels
Channel positions                        : Front: L R
Sampling rate                            : 48.0 KHz
Frame rate                              : 46.875 fps (1024 spf)
Compression mode                        : Lossy
Stream size                              : 111 MiB (6%)
Title                                    : İngilizce - Filmbol.org
Language                                : English
Default                                  : No
Forced                                  : No

Film Detayları


 Transformers: Kayıp Çağ

 Transformers: Kayıp Çağ

 Transformers: Kayıp Çağ


Film Fragmanı


Film Detayları

Uptobox ile indir

1Fichier ile indir

1Fichier'den İndiremiyor musun? Tıklayın!


Mega ile indir

Bunun için üzgünüz ancak, bu linke sadece premium üyeler erişebilir.

Filmbol Cloud



Konu ile Alakalı Benzer Konular
Konular Yazar Yorumlar Okunma Son Yorum
Filmin Yayınlanma Tarihi: 2020
The Hunt (Av) - 2020 - TR+ORG - 720P BroserBros 0 272 18-09-2020, Saat: 19:28
Son Yorum: BroserBros
Filmin Yayınlanma Tarihi: 2018
Gözbebeğim (Pupille) - 2018 - TR+ORG - 720P BroserBros 0 270 18-09-2020, Saat: 13:02
Son Yorum: BroserBros
  Umut Vadisi (Hope Gap) - 2019 - TR+ORG - 720P BroserBros 0 265 18-09-2020, Saat: 12:51
Son Yorum: BroserBros
Filmin Yayınlanma Tarihi: 2020
Malibu Rescue: Yeni Dalga (Malibu Rescue: The Next Wave) - 2020 - TR+ORG - 720P BroserBros 0 141 13-09-2020, Saat: 20:54
Son Yorum: BroserBros
Filmin Yayınlanma Tarihi: 2020
Masallardan Geriye Kalan (Yerli) - 2020 - TR+ORG - 720P BroserBros 0 387 01-09-2020, Saat: 21:49
Son Yorum: BroserBros

Hızlı Menü: