Filmbol Forum Film İndir BRRip XviD v Transformers: Kayıp Çağ (Transformers: Age of Extinction) - 2014 - TR - BRRip XviD
Moderatör Alımları Başladı! Başvuru yapmak için tıklayın.
Filmbol Premium'da %50'e varan indirim fırsatı!
Transformers: Kayıp Çağ (Transformers: Age of Extinction) - 2014 - TR - BRRip XviD
BroserBros
Transformers: Kayıp Çağ (Transformers: Age of Extinction) - 2014 - TR - BRRip XviD
0
79
  • Derecelendirme: 0/5 - 0 oy
  • 1
  • 2
  • 3
  • 4
  • 5
Konuyu Okuyanlar:1 Ziyaretçi
Şuan Online!
Filmin Yayınlanma Tarihi: 2014 
Şuan Online!
BroserBros Kurucu Admin
*******
Admin

Vizyon Tarihi


27 Haziran 2014

imdb puanı


5,6 / 300,000

süre


165 dakika

Editör Puanı


7,2 / 10

Video Format: Avi


Audio Video Interleave (.AVI)

Ses Kodek: MP3


MPEG-1 Audio Layer III (MP3)

sürüm


h263 | BRRip XviD

Boyutlar


1,36 GB



 Transformers: Kayıp Çağ



Autobot ve Decepticon'lar arasında yaşanan son savaşın ardından dört yıl geçer. Savaşta Chicago şehri yerle bir edilmiş ve binlerce insan öldürülmüş olsa da dünya ve insanlık büyük bir tehditten kurtulmuş olur. İnsanlık yaralarını sarmaya çalışırken Amerikan hükümeti de Autobotlar ile arasındaki ilişkiye iyice koparmış, hatta hayatta kalanları yok etmeleri için CIA'de özel bir birim dahi kurulmuştur. Teksas'ta kendi halinde bir tamirci olan Cade Yeager, eline geçen hasarlı bir kamyoneti, parçalarını satma umuduyla kabul eder. Ne var ki bu kamyonetin yaralı bir Optimus Prime'dan başkası olmadığını anlaması uzun sürmez. Optimus Prime'dan aldıkları sinyallerle yola çıkan CIA ajanlarıyla başının derde girmesi de çok yakındır. Cade Yeager bir şekilde Optimus Prime'ı Chicago'ya ulaştırmak ve diğer Autobotlar ile iletişime geçmesini sağlamak zorundadır. Zira dünyayı tehdit eden güçlü bir düşman yola çıkmak üzeredir. Optimus Prime ve Autobotlar, Cade Yeager başta olmak üzere kendilerine destek olan insan topluluğunun yardımıyla başlarına gelen en korkutucu düşmanla yüzleşmek zorundadır...

Transformers: Kayıp Çağ (2014) (Transformers: Age of Extinction) Filmi Imdb'den 300,000 kişi tarafından oylandı ve 5,6 puan aldı. Bu film için editör puanı 7,2 olarak belirlendi. İyi Seyirler!

Teknik Detaylar

Kod :
General
Complete name                            : /root/Desktop/7/Transformers.Kayıp.Çap.2014.BRRip.XviD.TR.Filmbol
Format                                  : AVI
Format/Info                              : Audio Video Interleave
Format profile                          : OpenDML
Format settings                          : rec
File size                                : 1.36 GiB
Duration                                : 2h 45mn
Overall bit rate                        : 1 178 Kbps
Writing application                      : AVI-Mux GUI 1.17.8.3, Feb 16 201019:42:50

Video
ID                                      : 0
Format                                  : MPEG-4 Visual
Format profile                          : Advanced Simple@L5
Format settings, BVOP                    : 2
Format settings, QPel                    : No
Format settings, GMC                    : No warppoints
Format settings, Matrix                  : Default (H.263)
Codec ID                                : XVID
Codec ID/Hint                            : XviD
Duration                                : 2h 45mn
Bit rate                                : 1 047 Kbps
Width                                    : 656 pixels
Height                                  : 272 pixels
Display aspect ratio                    : 2.40:1
Frame rate                              : 23.976 (24000/1001) fps
Color space                              : YUV
Chroma subsampling                      : 4:2:0
Bit depth                                : 8 bits
Scan type                                : Progressive
Compression mode                        : Lossy
Bits/(Pixel*Frame)                      : 0.245
Stream size                              : 1.21 GiB (89%)
Writing library                          : XviD 1.2.1 (UTC 2008-12-04)

Audio
ID                                      : 1
Format                                  : MPEG Audio
Format version                          : Version 1
Format profile                          : Layer 3
Mode                                    : Joint stereo
Mode extension                          : MS Stereo
Codec ID                                : 55
Codec ID/Hint                            : MP3
Duration                                : 2h 45mn
Bit rate mode                            : Constant
Bit rate                                : 128 Kbps
Channel(s)                              : 2 channels
Sampling rate                            : 48.0 KHz
Compression mode                        : Lossy
Stream size                              : 151 MiB (11%)
Alignment                                : Aligned on interleaves
Interleave, duration                    : 715 ms (17.15 video frames)
Interleave, preload duration            : 216 ms
Title                                    : Transformers.2014.TR
Writing library                          : LAME3.99r
Encoding settings                        : -m j -V 4 -q 2 -lowpass 17 -b 128

Film Detayları


 Transformers: Kayıp Çağ

 Transformers: Kayıp Çağ

 Transformers: Kayıp Çağ


Film Fragmanı


Film Detayları


Uptobox ile indir

1Fichier ile indir

1Fichier'den İndiremiyor musun? Tıklayın!


Mega ile indir

Bunun için üzgünüz ancak, bu linke sadece premium üyeler erişebilir.

Filmbol Cloud



Konu ile Alakalı Benzer Konular
Konular Yazar Yorumlar Okunma Son Yorum
Filmin Yayınlanma Tarihi: 2018
Seviye 16 (Level 16) - 2018 - TR - BRRip XviD BroserBros 0 79 04-07-2020, Saat: 21:27
Son Yorum: BroserBros
Filmin Yayınlanma Tarihi: 2018
Küçük Orman (Little Woods) - 2018 - TR - BRRip XviD BroserBros 0 79 04-07-2020, Saat: 19:58
Son Yorum: BroserBros
Filmin Yayınlanma Tarihi: 2018
Suda Ölüm (Dead in the Water) - 2018 - TR - BRRip XviD BroserBros 0 77 04-07-2020, Saat: 19:40
Son Yorum: BroserBros
Filmin Yayınlanma Tarihi: 2019
Aşkı Beklerken (Deux moi - Someone, Somewhere) - 2019 - TR - BRRip XviD BroserBros 0 49 03-07-2020, Saat: 14:17
Son Yorum: BroserBros
Filmin Yayınlanma Tarihi: 2019
Hellboy (Hellboy) - 2019 - TR - BRRip XviD BroserBros 0 58 03-07-2020, Saat: 12:39
Son Yorum: BroserBros

Hızlı Menü: