Filmbol Forum Film İndir UHD - ULTRA HD - 4K v Transformers 5: Son Şövalye (Transformers: The Last Knight) - 2017 - TR+ORG - UHD (4K)
Moderatör Alımları Başladı! Başvuru yapmak için tıklayın.
Filmbol Premium'da %50'e varan indirim fırsatı!
Transformers 5: Son Şövalye (Transformers: The Last Knight) - 2017 - TR+ORG - UHD (4K)
BroserBros
Transformers 5: Son Şövalye (Transformers: The Last Knight) - 2017 - TR+ORG - UHD (4K)
0
166
  • Derecelendirme: 0/5 - 0 oy
  • 1
  • 2
  • 3
  • 4
  • 5
Konuyu Okuyanlar:1 Ziyaretçi
Şuan Offine!
Filmin Yayınlanma Tarihi: 2017 
Şuan Offine!
BroserBros Kurucu Admin
*******
Admin

Vizyon Tarihi


23 Haziran 2017

imdb puanı


5,2 / 130,000

süre


154 dakika

Editör Puanı


7,0 / 10

Video Format: Mkv


Matroska (.MKV)

Ses Kodek: AC3


Audio Coding 3 (AC3)

sürüm


x265 | 4K | 4K 10Bit x265

Boyutlar


6,69 GB



 Transformers 5: Son Şövalye



Optimus Prime yaratıcısı ile tanışmış ve yeni bir görev almıştır. Bununla birlikte Optimus yeniden saf değiştirmiş ve artık hedefinde gezegenlerini canlandırmak için dünyayı yok etmek yatıyor. Optimus'u durdurabilecek ekip ise Bumblebee, bir oxford profesörü ve bir ingiliz lorduna düşüyor...

Transformers 5: Son Şövalye (2017) (Transformers: The Last Knight) Filmi Imdb'den 130,000 kişi tarafından oylandı ve 5,2 puan aldı. Bu film için editör puanı 7,0 olarak belirlendi. İyi Seyirler!

Teknik Detaylar

Kod :
Complete name                            : /root/Desktop/2/Transformers.5.Son.Şovalye..2017.4K.BluRay.10bit.x264.TR.ENG.Filmbol.mkv
Format                                  : Matroska
Format version                          : Version 4 / Version 2
File size                                : 6.69 GiB
Duration                                : 2h 34mn
Overall bit rate                        : 6 198 Kbps
Movie name                              : Transformers: Son Şovalye - Transformers The Last Knight - 2017 | Filmbol.org
Encoded date                            : UTC 2020-05-12 12:25:04
Writing application                      : mkvmerge v8.8.0 ('Wind at my back') 64bit
Writing library                          : libebml v1.3.3 + libmatroska v1.4.4

Video
ID                                      : 1
Format                                  : HEVC
Format/Info                              : High Efficiency Video Coding
Format profile                          : Main 10@L5@High
Codec ID                                : V_MPEGH/ISO/HEVC
Duration                                : 2h 34mn
Bit rate                                : 5 224 Kbps
Width                                    : 3 840 pixels
Height                                  : 2 020 pixels
Display aspect ratio                    : 1.901
Frame rate mode                          : Constant
Frame rate                              : 23.976 (24000/1001) fps
Color space                              : YUV
Chroma subsampling                      : 4:2:0
Bit depth                                : 10 bits
Bits/(Pixel*Frame)                      : 0.028
Stream size                              : 5.64 GiB (84%)
Title                                    : 4K - Filmbol.org
Writing library                          : x265 2.6:[Windows][GCC 7.1.0][64 bit] 10bit
Encoding settings                        : cpuid=1050111 / frame-threads=6 / numa-pools=32,0 / wpp / no-pmode / no-pme / no-psnr / no-ssim / log-level=2 / input-csp=1 / input-res=3840x2020 / interlace=0 / total-frames=0 / level-idc=50 / high-tier=1 / uhd-bd=0 / ref=5 / no-allow-non-conformance / no-repeat-headers / annexb / no-aud / no-hrd / info / hash=0 / no-temporal-layers / open-gop / min-keyint=24 / keyint=240 / bframes=16 / b-adapt=1 / b-pyramid / bframe-bias=100 / rc-lookahead=24 / lookahead-slices=8 / scenecut=40 / no-intra-refresh / ctu=64 / min-cu-size=16 / no-rect / no-amp / max-tu-size=32 / tu-inter-depth=4 / tu-intra-depth=4 / limit-tu=0 / rdoq-level=0 / dynamic-rd=0.00 / no-ssim-rd / signhide / no-tskip / nr-intra=0 / nr-inter=0 / no-constrained-intra / strong-intra-smoothing / max-merge=5 / limit-refs=3 / no-limit-modes / me=0 / subme=7 / merange=64 / temporal-mvp / no-weightp / weightb / no-analyze-src-pics / deblock=0:0 / sao / no-sao-non-deblock / rd=1 / early-skip / rskip / fast-intra / no-tskip-fast / no-cu-lossless / no-b-intra / no-splitrd-skip / rdpenalty=0 / psy-rd=0.00 / psy-rdoq=0.00 / no-rd-refine / analysis-reuse-mode=0 / no-lossless / cbqpoffs=-5 / crqpoffs=-5 / rc=crf / crf=29.2 / qcomp=0.60 / qpstep=4 / stats-write=0 / stats-read=0 / vbv-maxrate=100000 / vbv-bufsize=100000 / vbv-init=0.9 / crf-max=29.5 / crf-min=0.0 / ipratio=0.60 / pbratio=0.80 / aq-mode=3 / aq-strength=1.20 / cutree / zone-count=0 / no-strict-cbr / qg-size=32 / no-rc-grain / qpmax=69 / qpmin=0 / no-const-vbv / sar=1 / overscan=0 / videoformat=5 / range=1 / colorprim=9 / transfer=16 / colormatrix=9 / chromaloc=0 / display-window=0 / max-cll=0,0 / min-luma=0 / max-luma=1023 / log2-max-poc-lsb=12 / vui-timing-info / vui-hrd-info / slices=1 / no-opt-qp-pps / no-opt-ref-list-length-pps / no-multi-pass-opt-rps / scenecut-bias=0.05 / no-opt-cu-delta-qp / no-aq-motion / no-hdr / no-hdr-opt / no-dhdr10-opt / analysis-reuse-level=5 / scale-factor=0 / refine-intra=0 / refine-inter=0 / refine-mv=0 / no-limit-sao / ctu-info=0 / no-lowpass-dct / refine-mv-type=0 / copy-pic=1
Default                                  : Yes
Forced                                  : No
Color range                              : Full
Color primaries                          : BT.2020
Matrix coefficients                      : BT.2020 non-constant

Audio #1
ID                                      : 2
Format                                  : AC-3
Format/Info                              : Audio Coding 3
Mode extension                          : CM (complete main)
Format settings, Endianness              : Big
Codec ID                                : A_AC3
Duration                                : 2h 34mn
Bit rate mode                            : Constant
Bit rate                                : 320 Kbps
Channel(s)                              : 6 channels
Channel positions                        : Front: L C R, Side: L R, LFE
Sampling rate                            : 48.0 KHz
Frame rate                              : 31.250 fps (1536 spf)
Compression mode                        : Lossy
Stream size                              : 354 MiB (5%)
Title                                    : İngilizce - Filmbol.org
Language                                : English
Default                                  : Yes
Forced                                  : No

Audio #2
ID                                      : 3
Format                                  : AC-3
Format/Info                              : Audio Coding 3
Mode extension                          : CM (complete main)
Format settings, Endianness              : Big
Codec ID                                : A_AC3
Duration                                : 2h 34mn
Bit rate mode                            : Constant
Bit rate                                : 640 Kbps
Channel(s)                              : 6 channels
Channel positions                        : Front: L C R, Side: L R, LFE
Sampling rate                            : 48.0 KHz
Frame rate                              : 31.250 fps (1536 spf)
Compression mode                        : Lossy
Delay relative to video                  : -5ms
Stream size                              : 708 MiB (10%)
Title                                    : Türkçe - Filmbol.org
Language                                : Turkish
Default                                  : No
Forced                                  : No

Text
ID                                      : 4
Format                                  : PGS
Muxing mode                              : zlib
Codec ID                                : S_HDMV/PGS
Codec ID/Info                            : Picture based subtitle format used on BDs/HD-DVDs
Duration                                : 2h 34mn
Bit rate                                : 11.5 Kbps
Count of elements                        : 4588
Stream size                              : 12.7 MiB (0%)
Title                                    : Zorunlu Altyazı - Filmbol.org
Default                                  : Yes
Forced                                  : No

Film Detayları


 Transformers 5: Son Şövalye

 Transformers 5: Son Şövalye

 Transformers 5: Son Şövalye


Film Fragmanı


Film Detayları

Uptobox ile indir

1Fichier ile indir

1Fichier'den İndiremiyor musun? Tıklayın!


Mega ile indir

Bunun için üzgünüz ancak, bu linke sadece premium üyeler erişebilir.

Filmbol Cloud



Konu ile Alakalı Benzer Konular
Konular Yazar Yorumlar Okunma Son Yorum
Filmin Yayınlanma Tarihi: 2014
Transformers: Kayıp Çağ (Transformers: Age of Extinction) - 2014 - TR+ORG - UHD (4K) - 10Bit-x265 BroserBros 0 148 02-06-2020, Saat: 23:16
Son Yorum: BroserBros
Filmin Yayınlanma Tarihi: 2017
Coco (Koko) - 2017 - TR+ORG - UHD (4K) - 10Bit-x265 BroserBros 0 170 21-05-2020, Saat: 14:27
Son Yorum: BroserBros
  Wonder Woman (Wonder Woman) - 2017 - TR+ORG - UHD (4K) - x265 10Bit BroserBros 0 163 12-05-2020, Saat: 22:34
Son Yorum: BroserBros

Hızlı Menü: