Filmbol Forum Film İndir BRRip XviD v Transformers 5: Son Şövalye (Transformers: The Last Knight) - 2017 - TR - BRRip XviD
Moderatör Alımları Başladı! Başvuru yapmak için tıklayın.
Filmbol Premium'da %50'e varan indirim fırsatı!
Transformers 5: Son Şövalye (Transformers: The Last Knight) - 2017 - TR - BRRip XviD
BroserBros
Transformers 5: Son Şövalye (Transformers: The Last Knight) - 2017 - TR - BRRip XviD
1
134
  • Derecelendirme: 0/5 - 0 oy
  • 1
  • 2
  • 3
  • 4
  • 5
Konuyu Okuyanlar:1 Ziyaretçi
Şuan Offine!
Filmin Yayınlanma Tarihi: 2017 
Şuan Offine!
BroserBros Kurucu Admin
*******
Admin

Vizyon Tarihi


23 Haziran 2017

imdb puanı


5,2 / 130,000

süre


154 dakika

Editör Puanı


7,0 / 10

Video Format: Avi


Audio Video Interleave (.AVI)

Ses Kodek: MP3


MPEG-1 Audio Layer III (MP3)

sürüm


h263 | BRRip XviD

Boyutlar


1,39 GB



 Transformers 5: Son Şövalye



Optimus Prime yaratıcısı ile tanışmış ve yeni bir görev almıştır. Bununla birlikte Optimus yeniden saf değiştirmiş ve artık hedefinde gezegenlerini canlandırmak için dünyayı yok etmek yatıyor. Optimus'u durdurabilecek ekip ise Bumblebee, bir oxford profesörü ve bir ingiliz lorduna düşüyor...

Transformers 5: Son Şövalye (2017) (Transformers: The Last Knight) Filmi Imdb'den 130,000 kişi tarafından oylandı ve 5,2 puan aldı. Bu film için editör puanı 7,0 olarak belirlendi. İyi Seyirler!

Teknik Detaylar

Kod :
General
Complete name                            : /root/Desktop/2/Transformers.5.Son.Şovalye.2017.BRRip.XviD.TR.Flmbol.avi
Format                                  : AVI
Format/Info                              : Audio Video Interleave
File size                                : 1.39 GiB
Duration                                : 2h 34mn
Overall bit rate                        : 1 288 Kbps
Writing application                      : VirtualDubMod 1.5.10.2 (build 2540/release)
Writing library                          : VirtualDubMod build 2540/release

Video
ID                                      : 0
Format                                  : MPEG-4 Visual
Format profile                          : Advanced Simple@L5
Format settings, BVOP                    : 2
Format settings, QPel                    : No
Format settings, GMC                    : No warppoints
Format settings, Matrix                  : Default (H.263)
Muxing mode                              : Packed bitstream
Codec ID                                : XVID
Codec ID/Hint                            : XviD
Duration                                : 2h 34mn
Bit rate                                : 1 151 Kbps
Width                                    : 720 pixels
Height                                  : 384 pixels
Display aspect ratio                    : 1.85:1
Frame rate                              : 23.976 (24000/1001) fps
Color space                              : YUV
Chroma subsampling                      : 4:2:0
Bit depth                                : 8 bits
Scan type                                : Progressive
Compression mode                        : Lossy
Bits/(Pixel*Frame)                      : 0.174
Stream size                              : 1.24 GiB (89%)
Writing library                          : XviD 66

Audio
ID                                      : 1
Format                                  : MPEG Audio
Format version                          : Version 1
Format profile                          : Layer 3
Mode                                    : Joint stereo
Mode extension                          : MS Stereo
Codec ID                                : 55
Codec ID/Hint                            : MP3
Duration                                : 2h 34mn
Bit rate mode                            : Constant
Bit rate                                : 128 Kbps
Channel(s)                              : 2 channels
Sampling rate                            : 48.0 KHz
Compression mode                        : Lossy
Stream size                              : 141 MiB (10%)
Alignment                                : Aligned on interleaves
Interleave, duration                    : 42 ms (1.00 video frame)
Interleave, preload duration            : 504 ms

Film Detayları


 Transformers 5: Son Şövalye

 Transformers 5: Son Şövalye

 Transformers 5: Son Şövalye


Film Fragmanı


Film Detayları


Uptobox ile indir

1Fichier ile indir

1Fichier'den İndiremiyor musun? Tıklayın!


Mega ile indir

Bunun için üzgünüz ancak, bu linke sadece premium üyeler erişebilir.

Filmbol Cloud

Şuan Offine!
Şuan Offine!
sectechno Süper Üye
***
Super Üye

  • Konular9
  • Mesajlar67
  • Rep puanı 0
Teşekkürler BroserBros.İyi çalışmalar.


Konu ile Alakalı Benzer Konular
Konular Yazar Yorumlar Okunma Son Yorum
Filmin Yayınlanma Tarihi: 2014
Lucy (2014) Türkçe Dublaj BRRip XviD İndir BroserBros 1 255 19-09-2020, Saat: 00:56
Son Yorum: sectechno
Filmin Yayınlanma Tarihi: 2020
The Hunt (Av) - 2020 - TR - BRRip XviD BroserBros 0 222 18-09-2020, Saat: 19:28
Son Yorum: BroserBros
Filmin Yayınlanma Tarihi: 2018
Gözbebeğim (Pupille) - 2018 - TR - BRRip XviD BroserBros 0 222 18-09-2020, Saat: 13:02
Son Yorum: BroserBros
Filmin Yayınlanma Tarihi: 2019
Umut Vadisi (Hope Gap) - 2019 - TR - BRRip XviD BroserBros 0 221 18-09-2020, Saat: 12:50
Son Yorum: BroserBros
Filmin Yayınlanma Tarihi: 2019
Cep Herkülü: Naim Süleymanoğlu (Cep Herkülü: Naim Süleymanoğlu) - 2019 - TR - BRRip XviD BroserBros 0 111 15-09-2020, Saat: 21:51
Son Yorum: BroserBros

Hızlı Menü: