Filmbol Forum Film İndir BRRip XviD v Toprak ve Kan (La terre et le sang) - 2020 - TR - BRRip XviD
Moderatör Alımları Başladı! Başvuru yapmak için tıklayın.
Filmbol Premium'da %50'e varan indirim fırsatı!
Toprak ve Kan (La terre et le sang) - 2020 - TR - BRRip XviD
BroserBros
Toprak ve Kan (La terre et le sang) - 2020 - TR - BRRip XviD
0
113
  • Derecelendirme: 0/5 - 0 oy
  • 1
  • 2
  • 3
  • 4
  • 5
Konuyu Okuyanlar:1 Ziyaretçi
Şuan Online!
Filmin Yayınlanma Tarihi: 2020 
Şuan Online!
BroserBros Kurucu Admin
*******
Admin

Vizyon Tarihi


17 Nisan 2020

imdb puanı


5,4 / 500

süre


80 dakika

Editör Puanı


5,5 / 10

Video Format: Avi


Audio Video Interleave (.AVI)

Ses Kodek: MP3


MPEG-1 Audio Layer III (MP3)

sürüm


h263 | HDRip XviD

Boyutlar


0,70 GB



 Toprak ve Kan



Said, ormanın derinliklerine kurduğu bir kereste fabrikasında, kereste üretip şehre satmaktadır. Şehirden sürekli uzak kalan Said'in neler olduğu hakkında bir fikri yoktur. Hatta kardeşinin çırağını sıkıştırarak ona zorla Said'in kereste fabrikasında büyük miktarlarda kokain sattığından da habersizdir...

Toprak ve Kan (2020) (La terre et le sang) Filmi Imdb'den 500 kişi tarafından oylandı ve 5,4 puan aldı. Bu film için editör puanı 5,5 olarak belirlendi. İyi Seyirler!

Teknik Detaylar

Kod :
General
Complete name                            : /root/Desktop/4/Toprak.Ve.Kan.2020.HDRip.XViD.TR.Filmbol.avi
Format                                  : AVI
Format/Info                              : Audio Video Interleave
File size                                : 700 MiB
Duration                                : 1h 20mn
Overall bit rate                        : 1 209 Kbps

Video
ID                                      : 0
Format                                  : MPEG-4 Visual
Format profile                          : Advanced Simple@L5
Format settings, BVOP                    : 1
Format settings, QPel                    : No
Format settings, GMC                    : No warppoints
Format settings, Matrix                  : Default (H.263)
Codec ID                                : XVID
Codec ID/Hint                            : XviD
Duration                                : 1h 20mn
Bit rate                                : 1 068 Kbps
Width                                    : 720 pixels
Height                                  : 304 pixels
Display aspect ratio                    : 2.35:1
Frame rate                              : 24.000 fps
Color space                              : YUV
Chroma subsampling                      : 4:2:0
Bit depth                                : 8 bits
Scan type                                : Progressive
Compression mode                        : Lossy
Bits/(Pixel*Frame)                      : 0.203
Stream size                              : 618 MiB (88%)
Writing library                          : XviD 67

Audio
ID                                      : 1
Format                                  : MPEG Audio
Format version                          : Version 1
Format profile                          : Layer 3
Mode                                    : Joint stereo
Mode extension                          : MS Stereo
Codec ID                                : 55
Codec ID/Hint                            : MP3
Duration                                : 1h 20mn
Bit rate mode                            : Constant
Bit rate                                : 128 Kbps
Channel(s)                              : 2 channels
Sampling rate                            : 48.0 KHz
Compression mode                        : Lossy
Stream size                              : 74.1 MiB (11%)
Alignment                                : Aligned on interleaves
Interleave, duration                    : 24 ms (0.58 video frame)

Film Detayları


 Toprak ve Kan

 Toprak ve Kan

 Toprak ve Kan


Film Fragmanı


Film Detayları


Uptobox ile indir

1Fichier ile indir

1Fichier'den İndiremiyor musun? Tıklayın!


Mega ile indir

Bunun için üzgünüz ancak, bu linke sadece premium üyeler erişebilir.

Filmbol Cloud



Konu ile Alakalı Benzer Konular
Konular Yazar Yorumlar Okunma Son Yorum
Filmin Yayınlanma Tarihi: 2018
Seviye 16 (Level 16) - 2018 - TR - BRRip XviD BroserBros 0 80 04-07-2020, Saat: 21:27
Son Yorum: BroserBros
Filmin Yayınlanma Tarihi: 2018
Küçük Orman (Little Woods) - 2018 - TR - BRRip XviD BroserBros 0 79 04-07-2020, Saat: 19:58
Son Yorum: BroserBros
Filmin Yayınlanma Tarihi: 2018
Suda Ölüm (Dead in the Water) - 2018 - TR - BRRip XviD BroserBros 0 77 04-07-2020, Saat: 19:40
Son Yorum: BroserBros
Filmin Yayınlanma Tarihi: 2019
Aşkı Beklerken (Deux moi - Someone, Somewhere) - 2019 - TR - BRRip XviD BroserBros 0 49 03-07-2020, Saat: 14:17
Son Yorum: BroserBros
Filmin Yayınlanma Tarihi: 2019
Hellboy (Hellboy) - 2019 - TR - BRRip XviD BroserBros 0 58 03-07-2020, Saat: 12:39
Son Yorum: BroserBros

Hızlı Menü: