Filmbol Forum Film İndir 1080P v Toprak ve Kan (La terre et le sang) - 2020 - TR - 1080P
Toprak ve Kan (La terre et le sang) - 2020 - TR - 1080P
BroserBros
Toprak ve Kan (La terre et le sang) - 2020 - TR - 1080P
0
86
  • Derecelendirme: 0/5 - 0 oy
  • 1
  • 2
  • 3
  • 4
  • 5
Konuyu Okuyanlar:1 Ziyaretçi
Şuan Online!
Filmin Yayınlanma Tarihi: 2020 
Şuan Online!
BroserBros Kurucu Admin
*******
Admin

Vizyon Tarihi


17 Nisan 2020

imdb puanı


5,4 / 500

süre


80 dakika

Editör Puanı


5,5 / 10

Video Format: Mkv


Matroska (.MKV)

Ses Kodek: AC3


Audio Coding 3 (AC3)

sürüm


x264 | 1080P | WEBDL

Boyutlar


2,04 GB



 Toprak ve Kan



Said, ormanın derinliklerine kurduğu bir kereste fabrikasında, kereste üretip şehre satmaktadır. Şehirden sürekli uzak kalan Said'in neler olduğu hakkında bir fikri yoktur. Hatta kardeşinin çırağını sıkıştırarak ona zorla Said'in kereste fabrikasında büyük miktarlarda kokain sattığından da habersizdir...

Toprak ve Kan (2020) (La terre et le sang) Filmi Imdb'den 500 kişi tarafından oylandı ve 5,4 puan aldı. Bu film için editör puanı 5,5 olarak belirlendi. İyi Seyirler!

Teknik Detaylar

Kod :
General
Unique ID                                : 291441147125822340625442009739640178301 (0xDB4185F23EC6C8E0B3A00E988428067D)
Complete name                            : /root/Desktop/4/Toprak.Ve.Kan.2020.1080p.WEB-DL.x264.TR.FR.Filmbol.mkv
Format                                  : Matroska
Format version                          : Version 4 / Version 2
File size                                : 2.04 GiB
Duration                                : 1h 20mn
Overall bit rate mode                    : Variable
Overall bit rate                        : 3 612 Kbps
Movie name                              : Toprak ve Kan (2020) - Filmbol.org
Encoded date                            : UTC 2020-04-18 12:55:02
Writing application                      : mkvmerge v8.8.0 ('Wind at my back') 64bit
Writing library                          : libebml v1.3.3 + libmatroska v1.4.4

Video
ID                                      : 1
Format                                  : AVC
Format/Info                              : Advanced Video Codec
Format profile                          : Main@L4
Format settings, CABAC                  : Yes
Format settings, ReFrames                : 3 frames
Codec ID                                : V_MPEG4/ISO/AVC
Duration                                : 1h 20mn
Bit rate mode                            : Variable
Bit rate                                : 2 610 Kbps
Maximum bit rate                        : 3 915 Kbps
Width                                    : 1 920 pixels
Height                                  : 1 080 pixels
Display aspect ratio                    : 16:9
Frame rate mode                          : Constant
Frame rate                              : 24.000 fps
Color space                              : YUV
Chroma subsampling                      : 4:2:0
Bit depth                                : 8 bits
Scan type                                : Progressive
Bits/(Pixel*Frame)                      : 0.052
Stream size                              : 1.46 GiB (72%)
Title                                    : 1080p - Filmbol.org
Writing library                          : x264 core 148 r2717 0d2410d
Encoding settings                        : cabac=1 / ref=3 / deblock=1:0:0 / analyse=0x1:0x111 / me=umh / subme=10 / psy=1 / psy_rd=1.00:0.00 / mixed_ref=1 / me_range=24 / chroma_me=1 / trellis=2 / 8x8dct=0 / cqm=0 / deadzone=21,11 / fast_pskip=1 / chroma_qp_offset=-2 / threads=8 / lookahead_threads=1 / sliced_threads=0 / nr=0 / decimate=1 / interlaced=0 / bluray_compat=0 / stitchable=1 / constrained_intra=0 / bframes=2 / b_pyramid=0 / b_adapt=2 / b_bias=0 / direct=3 / weightb=1 / open_gop=0 / weightp=2 / keyint=250 / keyint_min=24 / scenecut=0 / intra_refresh=0 / rc_lookahead=48 / rc=2pass / mbtree=1 / bitrate=2610 / ratetol=1.0 / qcomp=0.50 / qpmin=6 / qpmax=51 / qpstep=4 / cplxblur=20.0 / qblur=0.5 / vbv_maxrate=3915 / vbv_bufsize=5220 / nal_hrd=vbr / filler=0 / ip_ratio=1.40 / aq=1:1.00
Default                                  : Yes
Forced                                  : No

Audio #1
ID                                      : 2
Format                                  : AC-3
Format/Info                              : Audio Coding 3
Mode extension                          : CM (complete main)
Format settings, Endianness              : Big
Codec ID                                : A_AC3
Duration                                : 1h 20mn
Bit rate mode                            : Constant
Bit rate                                : 640 Kbps
Channel(s)                              : 6 channels
Channel positions                        : Front: L C R, Side: L R, LFE
Sampling rate                            : 48.0 KHz
Frame rate                              : 31.250 fps (1536 spf)
Compression mode                        : Lossy
Stream size                              : 371 MiB (18%)
Title                                    : Türkçe
Language                                : Turkish
Default                                  : Yes
Forced                                  : No

Audio #2
ID                                      : 3
Format                                  : AC-3
Format/Info                              : Audio Coding 3
Mode extension                          : CM (complete main)
Format settings, Endianness              : Big
Codec ID                                : A_AC3
Duration                                : 1h 20mn
Bit rate mode                            : Constant
Bit rate                                : 384 Kbps
Channel(s)                              : 6 channels
Channel positions                        : Front: L C R, Side: L R, LFE
Sampling rate                            : 48.0 KHz
Frame rate                              : 31.250 fps (1536 spf)
Compression mode                        : Lossy
Stream size                              : 222 MiB (11%)
Title                                    : Fransızca
Language                                : French
Default                                  : No
Forced                                  : No

Text #1
ID                                      : 4
Format                                  : UTF-8
Codec ID                                : S_TEXT/UTF8
Codec ID/Info                            : UTF-8 Plain Text
Duration                                : 1h 19mn
Bit rate                                : 0 bps
Count of elements                        : 5
Stream size                              : 93.0 Bytes (0%)
Title                                    : KISIM
Language                                : Turkish
Default                                  : No
Forced                                  : No

Text #2
ID                                      : 5
Format                                  : UTF-8
Codec ID                                : S_TEXT/UTF8
Codec ID/Info                            : UTF-8 Plain Text
Duration                                : 1h 19mn
Bit rate                                : 13 bps
Count of elements                        : 319
Stream size                              : 7.70 KiB (0%)
Title                                    : Türkçe Altyazı
Language                                : Turkish
Default                                  : Yes
Forced                                  : No

Film Detayları


 Toprak ve Kan

 Toprak ve Kan

 Toprak ve Kan


Film Fragmanı


Film Detayları

Uptobox ile indir

1Fichier ile indir

1Fichier'den İndiremiyor musun? Tıklayın!


Mega ile indir

Bunun için üzgünüz ancak, bu linke sadece premium üyeler erişebilir.

Filmbol Cloud



Konu ile Alakalı Benzer Konular
Konular Yazar Yorumlar Okunma Son Yorum
Filmin Yayınlanma Tarihi: 2014
Transformers: Kayıp Çağ (Transformers: Age of Extinction) - 2014 - TR+ORG - 1080P BroserBros 0 20 , Saat: 23:16
Son Yorum: BroserBros
Filmin Yayınlanma Tarihi: 2019
Queen & Slim (Queen ve Slim) - 2019 - TR+ORG - 1080P BroserBros 0 18 , Saat: 22:54
Son Yorum: BroserBros
Filmin Yayınlanma Tarihi: 2015
Minyonlar (Minions) - 2015 - TR+ORG - 1080P BroserBros 0 18 , Saat: 22:35
Son Yorum: BroserBros
Filmin Yayınlanma Tarihi: 2014
Herkül: Özgürlük Savaşçısı (Hercules) - 2014 - TR+ORG - 1080P BroserBros 0 17 , Saat: 18:15
Son Yorum: BroserBros
Filmin Yayınlanma Tarihi: 2018
Mamma Mia! Yeniden Başlıyoruz (Mamma Mia! Here We Go Again) - 2018 - TR+ORG - 1080P BroserBros 0 46 01-06-2020, Saat: 15:59
Son Yorum: BroserBros

Hızlı Menü: