Hoşgeldin, Ziyaretçi: Giriş Yap Üye Ol


stats
Adblock'u kapattıysanız tıklayın.
Hoşgeldiniz!
Filmbol'u tercih ettiğiniz için teşekkürler, ancak ablock kullanarak devam edemezsiniz.
Merak etmeyin. Heryerden ardı ardına çıkan reklamlar görmeyeceksiniz :)

Sadece site içi 1 reklam göreceksin ve bu site gezintini etkilemeyecek.
Konuyu Oyla:
  • Derecelendirme: 0/5 - 0 oy
  • 1
  • 2
  • 3
  • 4
  • 5
Title: Tolkien (2019) Türkçe Dublaj BLURAY m1080P İndir
Gösterim Stili
#1
Filmin Yayınlanma Tarihi: 2019 

indirme türü


Bulut + Premium

vizyon tarihi


05 Haziran 2019

Boyutlar


1,86

diller


[TR]

altyazilar


KISIM [Eklenebilir]

Video Format: Mkv


Matroska (.MKV)

Video Detay


MPEG-4, 2000 Kbps, 1,56GB

imdb puanı


6,8 / 10,0 / 20,000

süre


112 dakika

Ses Kodek: AC3


Audio Coding 3 (AC3)

Ses Detay


384 Kbps, 6 Kanal, 307Mb

Editör Puanı


6,5

Genislik Yukseklik


1920-800

sürüm


x264 | m1080P





Tolkien


Film Detayları

Tolkien, Lord of The Rings serisi, The Hobbit, Silmarillion, Hurin'in Çocukları ve daha nice edebiyat dünyasına kazandırdığı önemli eserle tanınan J.R.R. Tolkien’ın hayatını konu ediyor. Film, İngiliz yazar, şair, filolog ve profesör unvanlı akademisyen JRR Tolkien'ın yetim kaldığı çocukluk döneminden itibaren yaşamının ilerleyen dönemine uzanıyor. Tolkien'in arkadaşlık ve aşkı keşfetme hikayesi anlatılırken diğer yandan da I. Dünya Savaşı Dönemi'nde Tolkien'in yaşadıklarına değiniliyor.

Tolkien (2019) Filmi Imdb'den 20,000 kişi tarafından oylandı ve 6,8 puan aldı. Bu film için editör puanı 6,5 olarak belirlendi. İyi Seyirler!


Teknik Detaylar


Kod:
General
Complete name                            : Tolkien.2019.m1080p.BLURAY.x264.TR.Filmbol.mkv
Format                                   : Matroska
Format version                           : Version 4 / Version 2
File size                                : 1.86 GiB
Duration                                 : 1h 51mn
Overall bit rate                         : 2 386 Kbps
Movie name                               : Tolkien (2019) - Filmbol.org
Encoded date                             : UTC 2019-11-02 00:38:23
Writing application                      : mkvmerge v35.0.0 ('All The Love In The World') 64-bit
Writing library                          : libebml v1.3.9 + libmatroska v1.5.2

Video
ID                                       : 1
Format                                   : AVC
Format/Info                              : Advanced Video Codec
Format profile                           : High@L4.1
Format settings, CABAC                   : Yes
Format settings, ReFrames                : 4 frames
Codec ID                                 : V_MPEG4/ISO/AVC
Duration                                 : 1h 51mn
Bit rate                                 : 2 000 Kbps
Width                                    : 1 920 pixels
Height                                   : 800 pixels
Display aspect ratio                     : 2.40:1
Frame rate mode                          : Constant
Frame rate                               : 23.976 (24000/1001) fps
Color space                              : YUV
Chroma subsampling                       : 4:2:0
Bit depth                                : 8 bits
Scan type                                : Progressive
Bits/(Pixel*Frame)                       : 0.054
Stream size                              : 1.56 GiB (84%)
Title                                    : m1080P - Filmbol.org
Writing library                          : x264 core 152
Default                                  : Yes
Forced                                   : No

Audio
ID                                       : 2
Format                                   : AC-3
Format/Info                              : Audio Coding 3
Mode extension                           : CM (complete main)
Format settings, Endianness              : Big
Codec ID                                 : A_AC3
Duration                                 : 1h 51mn
Bit rate mode                            : Constant
Bit rate                                 : 384 Kbps
Channel(s)                               : 6 channels
Channel positions                        : Front: L C R, Side: L R, LFE
Sampling rate                            : 48.0 KHz
Frame rate                               : 31.250 fps (1536 spf)
Compression mode                         : Lossy
Stream size                              : 307 MiB (16%)
Title                                    : Türkçe - Filmbol.org
Language                                 : Turkish
Default                                  : Yes
Forced                                   : No

Text
ID                                       : 3
Format                                   : UTF-8
Codec ID                                 : S_TEXT/UTF8
Codec ID/Info                            : UTF-8 Plain Text
Duration                                 : 1h 50mn
Bit rate                                 : 1 bps
Count of elements                        : 34
Stream size                              : 1.35 KiB (0%)
Title                                    : KISIM
Language                                 : Turkish
Default                                  : Yes
Forced                                   : Yes

Film Detayları


Tolkien

Tolkien

Tolkien


Film Fragmanı


Film Detayları

Mini 1080P İndir


Uptobox ile indir

LetsUpload ile indir

Dosya Upload ile indir

Mega linki şuan da gizli. Kullanıma açmak için konuya yorum yapın ve ardından sayfayı yenileyin. Ayrıca bu linki açtığınızda reklamsız olarak erişebileceğinizi unutmayın.

Mega


Mediafire linki şuan da gizli. Kullanıma açmak için konuya yorum yapın ve ardından sayfayı yenileyin. Ayrıca bu linki açtığınızda reklamsız olarak erişebileceğinizi unutmayın.

Mediafire


Google Drive linki şuan da gizli. Kullanıma açmak için konuya yorum yapın ve ardından sayfayı yenileyin. Ayrıca bu linki açtığınızda reklamsız olarak erişebileceğinizi unutmayın.

Google Drive

 
Cevapla
#2
teşekkürler
 
Cevapla
#3
SAOLUN
 
Cevapla
  


Konu ile Alakalı Benzer Konular
Konular Yazar Yorumlar Okunma Son Yorum
Filmin Yayınlanma Tarihi: 2019 Sonra (The Aftermath) Türkçe Dublaj BLURAY m1080P İndir BroserBros 0 185 12-07-2019, Saat: 19:32
Son Yorum: BroserBros

Hızlı Menü:


Browsing: 1 Ziyaretçi