Hoşgeldin, Ziyaretçi: Giriş Yap Üye Ol


Konuyu Oyla:
  • Derecelendirme: 0/5 - 0 oy
  • 1
  • 2
  • 3
  • 4
  • 5
Thor: Ragnarok Türkçe Dublaj m720P İndir
#1
Filmin Yayınlanma Tarihi: 2017 

indirme türü


Bulut + Premium

vizyon tarihi


27 Ocak 2017

Boyutlar


1,27

diller


[TR]

altyazilar


Yok [Eklenebilir]

Video Format: Mkv


Matroska (.MKV)

Video Detay


MPEG-4, 1020 Kbps, 0,94GB

imdb puanı


7,9 / 10,0 / 440,000

süre


130 dakika

Ses Kodek: AC3


Audio Coding 3 (AC3)

Ses Detay


384 Kbps, 6 Kanal, 358Mb

rarsifresi


filmbol.org

Editör Puanı


8,5

Genislik Yukseklik


1280-536

sürüm


x264 | m720P



Film Detayları

Thor: Ragnarok (2017) Türkçe Dublaj Bluray Brrip-Xvid İndir | Kısa özet:
Thor, Sakaar adlı eğlence ve gladyatör dövüşlerinin sıkça düzenlendiği gezegene hapsedilir. Memleketi Ragnarök sallantıdar ve acımasız kardeşi Hela, memleketini ele geçirmeye ve zarar vermeye başlamıştır. Thor, Sakaar'dan çıkmalı ve babasının ona emaneti Ragnarök'ü Hela'nın elinden almalıdır. Ancak Hela o kadar da kolay lokma değildir.
Thor: Ragnarok (2017) Filmi İmdb'den 440.000 kişi tarafından oylandı ve 7,9 puan aldı. Bu film için editör puanı 8,5 olarak belirlendi. İyi Seyirler!


Teknik Detaylar

Kod:
General
Complete name                            : Thor.Ragnarok.2017.m720P.BLURAY.x264.TR.Filmbol.mkv
Format                                   : Matroska
Format version                           : Version 4 / Version 2
File size                                : 1.27 GiB
Duration                                 : 2 h 10 min
Overall bit rate                         : 1 398 kb/s
Movie name                               : Thor Ragnarok / m720P / Filmbol.org
Encoded date                             : UTC 2018-09-01 17:53:18
Writing application                      : mkvmerge v15.0.0 ('Duel with the Devil') 64-bit
Writing library                          : libebml v1.3.5 + libmatroska v1.4.7

Video
ID                                       : 1
Format                                   : AVC
Format/Info                              : Advanced Video Codec
Format profile                           : High@L4.1
Format settings                          : CABAC / 12 Ref Frames
Format settings, CABAC                   : Yes
Format settings, ReFrames                : 12 frames
Codec ID                                 : V_MPEG4/ISO/AVC
Duration                                 : 2 h 10 min
Bit rate                                 : 1 020 kb/s
Width                                    : 1 280 pixels
Height                                   : 536 pixels
Display aspect ratio                     : 2.40:1
Frame rate mode                          : Constant
Frame rate                               : 23.976 (24000/1001) FPS
Color space                              : YUV
Chroma subsampling                       : 4:2:0
Bit depth                                : 8 bits
Scan type                                : Progressive
Bits/(Pixel*Frame)                       : 0.062
Stream size                              : 945 MiB (72%)
Title                                    : m720P - Filmbol.org
Writing library                          : x264 core 148 r2795 aaa9aa8
Default                                  : Yes
Forced                                   : No

Audio
ID                                       : 2
Format                                   : AC-3
Format/Info                              : Audio Coding 3
Codec ID                                 : A_AC3
Duration                                 : 2 h 10 min
Bit rate mode                            : Constant
Bit rate                                 : 384 kb/s
Channel(s)                               : 6 channels
Channel positions                        : Front: L C R, Side: L R, LFE
Sampling rate                            : 48.0 kHz
Frame rate                               : 31.250 FPS (1536 SPF)
Bit depth                                : 16 bits
Compression mode                         : Lossy
Stream size                              : 358 MiB (27%)
Title                                    : Türkçe - Filmbol.org
Language                                 : Turkish
Service kind                             : Complete Main
Default                                  : Yes
Forced                                   : No



Film Detayları


Thor Ragnarok

Thor Ragnarok

Thor Ragnarok

Thor Ragnarok

Thor Ragnarok


Film Fragmanı


Film Detayları

Mini 720P İndir


Turbobit İle İndir

Uptobox ile indir

Cloud Ru ile indir

Dosya Co ile indir

Dosya Upload ile indir

 
Alinti
  


Hızlı Menü:


Şu anda bu konuyu okuyanlar: 10 Ziyaretçi