Hoşgeldin, Ziyaretçi: Giriş Yap Üye Ol


Konuyu Oyla:
  • Derecelendirme: 0/5 - 0 oy
  • 1
  • 2
  • 3
  • 4
  • 5
Thor: Ragnarok Türkçe Dublaj Brrip-Xvid İndir
#1
Filmin Yayınlanma Tarihi: 2017 

indirme türü


Bulut + Premium

vizyon tarihi


27 Ocak 2017

Boyutlar


1,25

diller


[TR]

altyazilar


Yok [Eklenebilir]

Video Format: Avi


Audio Video Interleave (.AVI)

Video Detay


MPEG-4, 1240 Kbps, 1,13GB

imdb puanı


7,9 / 10,0 / 440,000

süre


130 dakika

Ses Kodek: MP3


MPEG-1 Audio Layer III (MP3)

Ses Detay


128 Kbps, 2 Kanal, 119Mb

rarsifresi


filmbol.org

Editör Puanı


8,5

Genislik Yukseklik


720-304

sürüm


h263 | Brrip-Xvid



Film Detayları

Thor: Ragnarok (2017) Türkçe Dublaj Bluray Brrip-Xvid İndir | Kısa özet:
Thor, Sakaar adlı eğlence ve gladyatör dövüşlerinin sıkça düzenlendiği gezegene hapsedilir. Memleketi Ragnarök sallantıdar ve acımasız kardeşi Hela, memleketini ele geçirmeye ve zarar vermeye başlamıştır. Thor, Sakaar'dan çıkmalı ve babasının ona emaneti Ragnarök'ü Hela'nın elinden almalıdır. Ancak Hela o kadar da kolay lokma değildir.
Thor: Ragnarok (2017) Filmi İmdb'den 440.000 kişi tarafından oylandı ve 7,9 puan aldı. Bu film için editör puanı 8,5 olarak belirlendi. İyi Seyirler!


Teknik Detaylar


Kod:
General
Complete name                            : Thor.Ragnarok.2017.BRRip-XviD.TR.Filmbol.avi
Format                                   : AVI
Format/Info                              : Audio Video Interleave
File size                                : 1.26 GiB
Duration                                 : 2 h 10 min
Overall bit rate                         : 1 381 kb/s

Video
ID                                       : 0
Format                                   : MPEG-4 Visual
Format profile                           : Advanced Simple@L5
Format settings                          : BVOP2
Format settings, BVOP                    : 2
Format settings, QPel                    : No
Format settings, GMC                     : No warppoints
Format settings, Matrix                  : Default (H.263)
Codec ID                                 : XVID
Codec ID/Hint                            : XviD
Duration                                 : 2 h 10 min
Bit rate                                 : 1 240 kb/s
Width                                    : 720 pixels
Height                                   : 304 pixels
Display aspect ratio                     : 2.35:1
Frame rate                               : 23.976 (24000/1001) FPS
Color space                              : YUV
Chroma subsampling                       : 4:2:0
Bit depth                                : 8 bits
Scan type                                : Progressive
Compression mode                         : Lossy
Bits/(Pixel*Frame)                       : 0.236
Stream size                              : 1.13 GiB (90%)
Writing library                          : XviD 66

Audio
ID                                       : 1
Format                                   : MPEG Audio
Format version                           : Version 1
Format profile                           : Layer 3
Format settings                          : Joint stereo / MS Stereo
Codec ID                                 : 55
Codec ID/Hint                            : MP3
Duration                                 : 2 h 10 min
Bit rate mode                            : Constant
Bit rate                                 : 128 kb/s
Channel(s)                               : 2 channels
Sampling rate                            : 48.0 kHz
Frame rate                               : 41.667 FPS (1152 SPF)
Compression mode                         : Lossy
Stream size                              : 119 MiB (9%)
Alignment                                : Aligned on interleaves
Interleave, duration                     : 24  ms (0.58 video frame)



Film Detayları


Thor Ragnarok

Thor Ragnarok

Thor Ragnarok

Thor Ragnarok

Thor Ragnarok


Film Fragmanı


Film Detayları

Brrip İndir


Turbobit İle İndir

Uptobox ile indir

Cloud Ru ile indir

Dosya Co ile indir

Dosya Upload ile indir

Mega ile indir

 
Alinti
#2
beklediğin bir filmdi. fragmannında görsel efekler gene ön planda.kadro güzel bakalım izleyip puan verecez. paylaşım için teşekkürler.
 
Alinti
#3
(03-02-2019, Saat: 21:53)onurayaz Adlı Kullanıcıdan Alıntı: beklediğin bir filmdi. fragmannında görsel efekler gene ön planda.kadro güzel bakalım izleyip puan verecez. paylaşım için teşekkürler.


Rica ederim onur, iyi seyirler. Puanını merakla bekliyorum. Smile
 
Alinti
  


Konu ile Alakalı Benzer Konular
Konular Yazar Yorumlar Okunma Son Yorum
Filmin Yayınlanma Tarihi: 2018 Ak Kuyruklu Geyik Avcısının Mirası (The Legacy of a..) Türkçe Dublaj Brrip-Xvid İndir DRMOV 0 101 02-02-2019, Saat: 12:59
Son Yorum: DRMOV
Filmin Yayınlanma Tarihi: 2018 Rampage: Büyük Yıkım (2018) Türkçe Dublaj Brrip-Xvid İndir BroserBros 2 1,275 08-01-2019, Saat: 20:58
Son Yorum: onurayaz
Filmin Yayınlanma Tarihi: 2018 Tomb Raider Türkçe Dublaj Brrip-Xvid İndir BroserBros 0 546 26-07-2018, Saat: 22:38
Son Yorum: BroserBros
Filmin Yayınlanma Tarihi: 2016 Kaplan ve Ejderha 2 (Crouching Tiger Hidden Drogon 2) Türkçe Dublaj Brrip-Xvid İndir BroserBros 0 895 23-02-2017, Saat: 21:21
Son Yorum: BroserBros
Filmin Yayınlanma Tarihi: 2016 Cehennem (Inferno) Türkçe Dublaj Brrip-Xvid İndir BroserBros 0 1,171 20-02-2017, Saat: 18:59
Son Yorum: BroserBros

Hızlı Menü:


Şu anda bu konuyu okuyanlar: 1 Ziyaretçi