Hoşgeldin, Ziyaretçi: Giriş Yap Üye Ol


Konuyu Oyla:
  • Derecelendirme: 0/5 - 0 oy
  • 1
  • 2
  • 3
  • 4
  • 5
Title: The Wave (2019) Türkçe Dublaj BRRip XviD indir
Gösterim Stili
#1
Filmin Yayınlanma Tarihi: 2019 

vizyon tarihi


07 Aralık 2019

imdb puanı


6,0 / 1,000

süre


90 dakika

Editör Puanı


5,9 / 10

Video Format: Avi


Audio Video Interleave (.AVI)

Ses Kodek: MP3


MPEG-1 Audio Layer III (MP3)

sürüm


h263 | HDRip XviD

Boyutlar


0,94



 The Wave



Dünya algısını değiştirebilecek kadar güçlü bir doz hayal edin. Frank bunu sevmiş olmalı ki, sürekli olarak bu dozdan alır ve geceleri tuhaflaşır, halüsyoslanlar görür ve bunlar sanki gerçek düzeydedir.

The Wave (2019) (2019) Filmi Imdb'den 1,000 kişi tarafından oylandı ve 6,0 puan aldı. Bu film için editör puanı 5,9 olarak belirlendi. İyi Seyirler!

Teknik Detaylar

Kod:
General
Complete name                            : /root/Desktop/5/The.Wave.2019.HDRip.XViD.TR.Filmbol.avi
Format                                   : AVI
Format/Info                              : Audio Video Interleave
File size                                : 947 MiB
Duration                                 : 1h 27mn
Overall bit rate                         : 1 516 Kbps

Video
ID                                       : 0
Format                                   : MPEG-4 Visual
Format profile                           : Simple@L5
Format settings, BVOP                    : No
Format settings, QPel                    : No
Format settings, GMC                     : No warppoints
Format settings, Matrix                  : Default (H.263)
Codec ID                                 : XVID
Codec ID/Hint                            : XviD
Duration                                 : 1h 27mn
Bit rate                                 : 1 375 Kbps
Width                                    : 720 pixels
Height                                   : 302 pixels
Display aspect ratio                     : 2.40:1
Frame rate                               : 23.976 fps
Color space                              : YUV
Chroma subsampling                       : 4:2:0
Bit depth                                : 8 bits
Scan type                                : Progressive
Compression mode                         : Lossy
Bits/(Pixel*Frame)                       : 0.264
Stream size                              : 859 MiB (91%)
Writing library                          : Lavc58.1.100

Audio
ID                                       : 1
Format                                   : MPEG Audio
Format version                           : Version 1
Format profile                           : Layer 3
Mode                                     : Joint stereo
Mode extension                           : MS Stereo
Codec ID                                 : 55
Codec ID/Hint                            : MP3
Duration                                 : 1h 27mn
Bit rate mode                            : Constant
Bit rate                                 : 128 Kbps
Channel(s)                               : 2 channels
Sampling rate                            : 48.0 KHz
Compression mode                         : Lossy
Stream size                              : 79.9 MiB (8%)
Alignment                                : Aligned on interleaves
Interleave, duration                     : 24 ms (0.58 video frame)

Film Detayları


 The Wave

 The Wave

 The Wave


Film Fragmanı


Film Detayları


Uptobox ile indir

1Fichier ile indir

Mega linki şuan da gizli. Kullanıma açmak için konuya yorum yapın ve ardından sayfayı yenileyin. Ayrıca bu linki açtığınızda reklamsız olarak erişebileceğinizi unutmayın.

Mega


Mediafire linki şuan da gizli. Kullanıma açmak için konuya yorum yapın ve ardından sayfayı yenileyin. Ayrıca bu linki açtığınızda reklamsız olarak erişebileceğinizi unutmayın.

Mediafire

 
Cevapla
  


Konu ile Alakalı Benzer Konular
Konular Yazar Yorumlar Okunma Son Yorum
Filmin Yayınlanma Tarihi: 2005 Serenity: Gizemli Yolculuk (Serenity) Türkçe Dublaj BRRip XviD indir BroserBros 2 110 17-02-2020, Saat: 23:16
Son Yorum: agresif
Filmin Yayınlanma Tarihi: 1985 Geleceğe Dönüş (Back to the Future) Türkçe Dublaj Brrip Xvid İndir BroserBros 2 250 15-02-2020, Saat: 19:23
Son Yorum: hokkabaz256
Filmin Yayınlanma Tarihi: 2019 Yıldızlara Doğru (Ad Astra) Türkçe Dublaj BRRip XviD İndir BroserBros 2 153 08-02-2020, Saat: 15:02
Son Yorum: MrGunebakan
Filmin Yayınlanma Tarihi: 2013 Demir Adam 3 (Iron Man 3) Türkçe Dublaj Brrip-Xvid İndir BroserBros 2 1,845 08-02-2020, Saat: 13:49
Son Yorum: Ap0calypse
Filmin Yayınlanma Tarihi: 2010 Demir Adam 2 (Iron Man 2) Türkçe Dublaj Brrip-Xvid İndir BroserBros 1 2,013 08-02-2020, Saat: 13:14
Son Yorum: Ap0calypse

Hızlı Menü:


Browsing: 1 Ziyaretçi