Hoşgeldin, Ziyaretçi: Giriş Yap Üye Ol


Konuyu Oyla:
  • Derecelendirme: 0/5 - 0 oy
  • 1
  • 2
  • 3
  • 4
  • 5
Title: The Wave (2019) Türkçe Dublaj BLURAY 720P indir
Gösterim Stili
#1
Filmin Yayınlanma Tarihi: 2019 

vizyon tarihi


07 Aralık 2019

imdb puanı


6,0 / 1,000

süre


90 dakika

Editör Puanı


5,9 / 10

Video Format: Mkv


Matroska (.MKV)

Ses Kodek: AC3


Audio Coding 3 (AC3)

sürüm


x264 | 720P | WEB-DL

Boyutlar


0,90



 The Wave



Dünya algısını değiştirebilecek kadar güçlü bir doz hayal edin. Frank bunu sevmiş olmalı ki, sürekli olarak bu dozdan alır ve geceleri tuhaflaşır, halüsyoslanlar görür ve bunlar sanki gerçek düzeydedir.

The Wave (2019) (2019) Filmi Imdb'den 1,000 kişi tarafından oylandı ve 6,0 puan aldı. Bu film için editör puanı 5,9 olarak belirlendi. İyi Seyirler!

Teknik Detaylar

Kod:
General
Unique ID                                : 147313095036181108381102628503372946294 (0x6ED3785804B6AB77FAB3B0D9BFB3DB76)
Complete name                            : /root/Desktop/5/The.Wave.2019.720p.WEB-DL.x264.TR.Filmbol.mkv
Format                                   : Matroska
Format version                           : Version 4 / Version 2
File size                                : 903 MiB
Duration                                 : 1h 27mn
Overall bit rate                         : 1 446 Kbps
Movie name                               : The Wave (2019) - Filmbol.org
Encoded date                             : UTC 2020-02-14 08:03:55
Writing application                      : mkvmerge v35.0.0 ('All The Love In The World') 64-bit
Writing library                          : libebml v1.3.9 + libmatroska v1.5.2

Video
ID                                       : 1
Format                                   : AVC
Format/Info                              : Advanced Video Codec
Format profile                           : Main@L3.1
Format settings, CABAC                   : Yes
Format settings, ReFrames                : 2 frames
Codec ID                                 : V_MPEG4/ISO/AVC
Duration                                 : 1h 27mn
Bit rate                                 : 1 252 Kbps
Width                                    : 1 280 pixels
Height                                   : 534 pixels
Display aspect ratio                     : 2.40:1
Frame rate mode                          : Constant
Frame rate                               : 23.976 (24000/1001) fps
Color space                              : YUV
Chroma subsampling                       : 4:2:0
Bit depth                                : 8 bits
Scan type                                : Progressive
Bits/(Pixel*Frame)                       : 0.076
Stream size                              : 782 MiB (87%)
Title                                    : 720P - Filmbol.org
Default                                  : Yes
Forced                                   : No

Audio
ID                                       : 2
Format                                   : AC-3
Format/Info                              : Audio Coding 3
Mode extension                           : CM (complete main)
Format settings, Endianness              : Big
Codec ID                                 : A_AC3
Duration                                 : 1h 27mn
Bit rate mode                            : Constant
Bit rate                                 : 192 Kbps
Channel(s)                               : 2 channels
Channel positions                        : Front: L R
Sampling rate                            : 48.0 KHz
Frame rate                               : 31.250 fps (1536 spf)
Compression mode                         : Lossy
Stream size                              : 120 MiB (13%)
Title                                    : Türkçe - Filmbol.org
Language                                 : Turkish
Default                                  : Yes
Forced                                   : No

Film Detayları


 The Wave

 The Wave

 The Wave


Film Fragmanı


Film Detayları

Uptobox ile indir

1Fichier ile indir

Mega linki şuan da gizli. Kullanıma açmak için konuya yorum yapın ve ardından sayfayı yenileyin. Ayrıca bu linki açtığınızda reklamsız olarak erişebileceğinizi unutmayın.

Mega


Mediafire linki şuan da gizli. Kullanıma açmak için konuya yorum yapın ve ardından sayfayı yenileyin. Ayrıca bu linki açtığınızda reklamsız olarak erişebileceğinizi unutmayın.

Mediafire

 
Cevapla
#2
Teşekkürler
 
Cevapla
  


Konu ile Alakalı Benzer Konular
Konular Yazar Yorumlar Okunma Son Yorum
Filmin Yayınlanma Tarihi: 2019 Avengers: Endgame (2019) Türkçe Dublaj BLURAY m720P İndir BroserBros 25 1,296 18-02-2020, Saat: 23:11
Son Yorum: DeviLJoN
Filmin Yayınlanma Tarihi: 2011 Kaptan Amerika: İlk Yenilmez (The First Avenger) (2011) Türkçe Dublaj 720P İndir BroserBros 5 2,971 18-02-2020, Saat: 09:27
Son Yorum: Omeryuksel256
Filmin Yayınlanma Tarihi: 2005 Serenity: Gizemli Yolculuk (Serenity) Türkçe Dublaj BLURAY 720P indir BroserBros 0 66 17-02-2020, Saat: 19:12
Son Yorum: BroserBros
Filmin Yayınlanma Tarihi: 2014 Kaptan Amerika: Kış Askeri (Winter Soldier) Türkçe Dublaj 720P İndir BroserBros 4 2,906 16-02-2020, Saat: 13:05
Son Yorum: Omeryuksel256
Filmin Yayınlanma Tarihi: 2015 Karınca Adam (Ant-Man) Türkçe Dublaj 720P İndir BroserBros 2 1,510 13-02-2020, Saat: 00:38
Son Yorum: ashkitom

Hızlı Menü:


Browsing: 1 Ziyaretçi